<?xml version="1.0" standalone="no"?>
<!DOCTYPE svg PUBLIC "-//W3C//DTD SVG 1.1//EN" "http://www.w3.org/Graphics/SVG/1.1/DTD/svg11.dtd" >
<svg xmlns="http://www.w3.org/2000/svg">
<metadata>Generated by IcoMoon</metadata>
<defs>
<font id="icomoon" horiz-adv-x="1024">
<font-face units-per-em="1024" ascent="960" descent="-64" />
<missing-glyph horiz-adv-x="1024" />
<glyph unicode="&#x20;" horiz-adv-x="512" d="" />
<glyph unicode="&#xe900;" glyph-name="radar" d="M512 950.857c-281.6 0-512-230.4-512-512s230.4-512 512-512c281.6 0 512 230.4 512 512s-230.4 512-512 512zM512-27.063c-117.76 0-230.4 46.080-312.32 122.88l51.2 51.2c61.44-51.2 133.12-81.92 209.92-92.16 5.12-25.6 25.6-40.96 56.32-40.96 25.6 0 46.080 20.48 56.32 40.96 30.72 5.12 66.56 15.36 97.28 25.6 250.88 107.52 312.32 445.44 117.76 634.88-117.76 117.76-307.2 143.36-455.68 56.32-35.84-15.36-56.32-35.84-76.8-56.32-5.12 5.12-15.36 10.24-20.48 10.24-20.48 0-35.84-15.36-35.84-35.84 0-10.24 5.12-20.48 10.24-25.6-46.080-66.56-71.68-143.36-71.68-225.28 5.12 81.92 30.72 158.72 76.8 220.16 5.12-5.12 10.24-5.12 20.48-5.12 20.48 0 35.84 15.36 35.84 35.84 0 10.24-5.12 15.36-10.24 20.48 30.72 30.72 66.56 51.2 112.64 71.68 250.88 102.4 527.36-107.52 501.76-373.76-15.36-128-97.28-245.76-220.16-296.96-30.72-10.24-61.44-20.48-87.040-25.6-10.24 20.48-30.72 30.72-51.2 30.72s-40.96-10.24-51.2-30.72c-66.56 10.24-128 40.96-179.2 87.040l51.2 51.2c92.16-71.68 220.16-87.040 327.68-25.6 92.16 56.32 143.36 168.96 128 281.6 0 0 0 5.12 0 5.12 10.24 10.24 20.48 20.48 20.48 35.84 0 25.6-20.48 46.080-46.080 46.080 0 0 0 0-5.12 0-56.32 97.28-168.96 158.72-281.6 133.12-143.36-20.48-225.28-133.12-230.4-261.12 5.12 117.76 81.92 225.28 204.8 250.88 112.64 25.6 225.28-30.72 276.48-128-10.24-10.24-20.48-20.48-20.48-35.84 0-25.6 20.48-46.080 46.080-46.080 0 0 0 0 5.12 0 10.24-87.040-20.48-174.080-92.16-230.4-92.16-71.68-215.040-61.44-302.080 5.12l40.96 51.2c112.64-81.92 286.72 10.24 261.12 153.6-30.72 184.32-307.2 168.96-307.2-20.48 5.12 168.96 266.24 189.44 281.6 15.36 10.24-112.64-117.76-184.32-204.8-122.88l51.2 51.2c5.12 0 15.36-5.12 20.48-5.12 30.72 0 56.32 25.6 56.32 56.32s-25.6 56.32-56.32 56.32-56.32-20.48-56.32-51.2c0-5.12 0-15.36 5.12-20.48l-291.84-291.84c-76.8 81.92-122.88 194.56-122.88 312.32 0 256 209.92 465.92 465.92 465.92s465.92-209.92 465.92-465.92c0-256-209.92-465.92-465.92-465.92z" />
<glyph unicode="&#xe901;" glyph-name="info" horiz-adv-x="478" d="M462.753 45.929l-14.632-57.623c-43.897-16.696-79.002-29.391-105.135-38.145s-56.542-13.101-91.166-13.101c-53.17 0-94.538 12.522-124.043 37.449-29.505 24.985-44.258 56.696-44.258 95.13 0 14.899 1.084 30.203 3.312 45.797s5.781 33.217 10.658 52.87l54.916 187.014c4.877 17.913 9.032 34.899 12.344 50.957 3.372 15.942 4.998 30.609 4.998 43.826 0 23.884-5.118 40.58-15.355 49.971s-29.746 14.145-58.71 14.145c-14.211 0-28.783-2.203-43.656-6.435-14.933-4.232-27.699-8.348-38.417-12.174l14.692 57.681c35.948 14.087 70.331 26.145 103.209 36.174s63.948 15.072 93.333 15.072c52.809 0 93.574-12.29 122.176-36.87s42.933-56.464 42.933-95.768c0-8.116-0.963-22.435-2.951-42.899-1.987-20.522-5.66-39.304-11.019-56.406l-54.675-186.319c-4.456-14.957-8.49-32.058-11.983-51.304-3.613-19.13-5.359-33.739-5.359-43.536 0-24.754 5.72-41.623 17.222-50.609 11.561-8.986 31.492-13.449 59.794-13.449 13.308 0 28.422 2.261 45.222 6.725s29.024 8.406 36.551 11.826v0zM476.662 828.074c0-32.464-12.705-60.174-38.237-82.957-25.471-22.899-56.181-34.319-92.069-34.319-36.009 0-66.778 11.42-92.551 34.319-25.712 22.783-38.598 50.493-38.598 82.957 0 32.406 12.886 60.174 38.598 83.246s56.542 34.551 92.551 34.551c35.888 0 66.598-11.536 92.069-34.551 25.531-23.072 38.237-50.841 38.237-83.246v0z" />
<glyph unicode="&#xe902;" glyph-name="ask" horiz-adv-x="1280" d="M942.080 65.097v-131.84h-938.24v131.84c0 28.16 12.8 55.040 34.56 71.68 119.040 98.56 248.32 163.84 273.92 176.64 2.56 1.28 5.12 3.84 5.12 7.68v185.6c-23.040 15.36-38.4 42.24-38.4 72.96v192c0 96 78.080 174.080 174.080 174.080h40.96c96 0 174.080-78.080 174.080-174.080v-193.28c0-30.72-15.36-56.32-38.4-72.96v-185.6c0-3.84 1.28-6.4 5.12-7.68 25.6-12.8 154.88-78.080 273.92-176.64 20.48-16.64 33.28-43.52 33.28-70.4v0zM1199.36 867.657c102.4-102.4 102.4-268.8 0-372.48-87.040-87.040-218.88-99.84-318.72-40.96v0c-39.68-29.44-81.92-34.56-111.36-30.72-10.24 1.28-11.52 15.36-2.56 19.2 26.88 12.8 44.8 39.68 53.76 61.44l-2.56 2.56c-90.88 103.68-88.32 261.12 11.52 359.68 99.84 104.96 266.24 104.96 369.92 1.28v0zM980.48 802.377c0-24.32 19.2-43.52 43.52-43.52 23.040 0 42.24 19.2 42.24 43.52s-19.2 43.52-42.24 43.52c-23.040-1.28-43.52-20.48-43.52-43.52v0zM1075.2 564.297c-3.84-1.28-7.68-5.12-11.52-6.4-5.12-2.56-10.24-3.84-15.36-5.12-6.4-1.28-11.52 2.56-12.8 8.96-1.28 5.12-1.28 10.24-1.28 15.36 1.28 10.24 3.84 20.48 5.12 30.72 5.12 30.72 11.52 61.44 16.64 92.16 1.28 7.68 2.56 16.64 2.56 24.32 0 10.24-6.4 15.36-16.64 15.36h-81.92c-3.84 0-6.4 0-10.24-1.28-6.4-1.28-8.96-3.84-8.96-8.96 0-3.84 1.28-8.96 7.68-10.24 3.84-1.28 8.96-2.56 14.080-2.56 11.52-1.28 14.080-5.12 14.080-16.64v-5.12c-5.12-26.88-8.96-53.76-14.080-80.64-2.56-15.36-5.12-30.72-7.68-46.080-2.56-23.040 19.2-43.52 35.84-46.080 10.24-1.28 20.48-1.28 30.72-1.28 23.040 0 40.96 10.24 56.32 25.6 2.56 2.56 5.12 6.4 6.4 10.24 2.56 5.12-2.56 10.24-8.96 7.68v0z" />
<glyph unicode="&#xe903;" glyph-name="secupress" horiz-adv-x="1052" d="M1043.799 845.731c-124.271 40.599-252.712 74.166-381.923 94.206-171.046 26.534-335.61-5.814-501.191-49.663-51.295-13.582-102.471-28.061-152.918-44.543-3.952-1.289-8.297-5.499-7.715-10.129 9.446-75.307 29.6-150.089 52.486-222.245 40.37-127.261 95.919-250.572 168.383-362.934l5.795 29.791c-91.917 147.049-155.574 312.983-191.971 480.998-4.366 20.145-9.818 48.010-12.649 67.035 117.187 37.895 237.891 69.22 359.359 89.226 82.338 13.561 162.903 17.211 245.753 6.388 88.498-11.551 175.909-31.976 262.074-54.91 47.006-12.51 93.887-25.826 140.213-40.725-8.171-61.585-22.025-124.424-40.679-186.941-20.462 9.758-70.047 31.906-85.211 25.021 0 0 59.206-24.572 79.36-44.080-48.149-153.228-124.628-303.576-216.308-427.832-67.636-91.656-148.608-172.932-240.904-239.735-98.932 71.637-183.485 159.679-254.078 258.291l-11.331-12.643-2.824-3.67c7.61-10.598 15.332-21.119 23.272-31.479 67.973-88.665 147.865-166.81 238.732-231.869 1.703-1.653 3.875-2.655 6.272-2.585 2.376-0.063 4.52 0.925 6.209 2.55 269.789 193.168 436.715 504.4 505.528 824.417 5.536 25.77 10.7 51.758 13.98 77.934 0.589 4.658-3.707 8.819-7.715 10.129zM626.809 765.142c0 0 190.856 75.777 397.97 7.25l6.79 22.156c-166.435 55.064-326.655 13.848-383.212-4.476l0.792 4.623c3.258 19.802 12.305 39.59 20.595 57.207 4.359 9.274-4.667 19.704-14.386 14.381-106.689-58.496-212.832-128.501-290.468-223.758-33.818-41.489-67.020-91.558-75.24-145.683-6.16-40.592 14.814-63.329 44.883-75.167-12.172-5.849-23.91-12.377-34.897-19.69-82.296-54.812-101.658-145.207-77.72-237.557 2.123-8.174 15.346-10.941 19.215-2.508 13.44 29.322 40.672 53.642 69.010 73.199 84.756 21.946 183.197-4.819 224.016-86.998 32.494-65.424 30.371-148.1-15.199-199.087l0.988-1.877 7.253-4.413c9.509 7.138 18.815 14.381 27.988 21.687 28.941 53.39 28.359 123.57 1.906 183.873-26.012 59.295-77.51 95.383-136.065 108.846 107.033 4.924 214.675-35.976 277.855-127.331 4.036-5.842 8.129-11.572 12.263-17.197 4.625 5.233 9.173 10.486 13.672 15.754-16.608 22.324-32.718 45.874-51.905 64.128-59.087 56.192-137.775 83.3-218.487 85.156-26.369 0.602-53.727-0.981-80.642-5.12 144.257 73.003 317.832 85.639 476.097 86.144 5.242 0.014 11.114 4.819 10.511 10.507-2.509 23.725-5.935 62.804-32.242 72.008 4.050-0.539 10.105-61.571 10.105-61.571-168.061-1.198-351.433-17.547-500.105-102.345-34.393-19.62-75.94-46.868-101.293-81.486-13.090 80.12 11.892 153.15 87.11 196.523 13.812 7.971 28.759 14.857 44.203 20.72 22.207-3.341 45.626-3.131 65.324-1.219 24.561 2.389 48.485 10.542 71.435 20.671 21.765-24.271 59.396-35.444 97.404-25.665 51.561 13.274 84.118 59.953 72.703 104.272-1.030 4-2.502 7.768-4.176 11.418 7.456 4.231 14.891 8.504 22.403 12.629 48.548 26.709 103.157 58.377 159.82 61.543 41.94 2.347 85.688-3.986 127.768-12.805 2.312 6.802 4.52 13.477 6.664 20.089-65.464 13.932-134.993 22.1-198.151-0.245-70.888-25.070-134.887-65.963-200.092-103.48 31.66 11.060 62.044 6.15 69.304-11.866 7.652-18.983-13.251-45.292-46.684-58.762-33.44-13.463-66.746-8.994-74.399 9.989-5.101 12.65 2.53 28.537 18.051 41.727-6.524-3.544-13.062-7.047-19.649-10.444-39.543-20.391-80.208-39.317-125.483-38.554-37.245 0.63-103.347 0.848-101.111 52.57 1.962 45.355 31.702 91.341 57.721 126.386 69.977 94.255 169.995 163.784 271.499 221.488-6.377-16.307-11.233-33.258-11.71-50.315v-17.323zM354.903 390.086c0 0-11.499 4.245-11.555-9.842-0.063-14.086 60.223-23.858 60.223-23.858l-48.667 33.7z" />
<glyph unicode="&#xe904;" glyph-name="question-circle" d="M477.867 330.768v17.067c0 22.756 5.689 39.822 11.378 56.889s22.756 28.444 39.822 45.511c28.444 22.756 45.511 39.822 51.2 51.2s11.378 22.756 11.378 39.822c0 22.756-5.689 34.133-17.067 45.511-17.067 11.378-39.822 17.067-62.578 17.067-17.067 0-28.444 0-45.511-5.689-11.378-5.689-28.444-11.378-51.2-22.756l-17.067 39.822c39.822 17.067 73.956 28.444 113.778 28.444s68.267-11.378 85.333-28.444c22.756-17.067 28.444-45.511 28.444-79.644 0-17.067 0-28.444-5.689-39.822s-11.378-22.756-17.067-28.444c-5.689-11.378-22.756-22.756-45.511-45.511-17.067-17.067-34.133-28.444-39.822-39.822 0-11.378-5.689-22.756-5.689-45.511v-11.378h-34.133zM460.8 239.746c0 28.444 11.378 39.822 34.133 39.822 11.378 0 22.756-5.689 28.444-11.378s11.378-17.067 11.378-28.444c0-11.378-5.689-22.756-11.378-28.444s-17.067-11.378-28.444-11.378c-11.378 0-17.067 5.689-22.756 11.378s-11.378 17.067-11.378 28.444zM512-73.143c-284.444 0-512 227.556-512 512s227.556 512 512 512c284.444 0 512-227.556 512-512s-227.556-512-512-512zM512 888.279c-250.311 0-449.422-204.8-449.422-449.422s204.8-449.422 449.422-449.422 449.422 204.8 449.422 449.422-199.111 449.422-449.422 449.422z" />
<glyph unicode="&#xe905;" glyph-name="pad-check" horiz-adv-x="864" d="M624.48 950.857h-384.16c-10 0-18.112-8.096-18.112-18.112v-64.16h-165.152c-29.952 0-54.336-24.384-54.336-54.32v-832.96c0-29.968 24.384-54.336 54.336-54.336h750.704c29.952 0 54.336 24.384 54.336 54.336v832.96c0 29.952-24.384 54.32-54.336 54.32h-165.2v64.16c0.016 10.016-8.096 18.112-18.096 18.112zM258.448 914.649h347.904v-128.48h-347.904v128.48zM807.728 832.329c9.984 0 18.096-8.128 18.096-18.096v-832.96c0-9.984-8.112-18.128-18.096-18.128h-750.704c-9.984 0-18.096 8.128-18.096 18.128v832.96c0 9.984 8.128 18.096 18.096 18.096h165.152v-64.16c0-9.984 8.112-18.096 18.112-18.096h384.16c10 0 18.112 8.112 18.112 18.096v64.16h165.184zM562.4 541.785l-193.76-193.76-51.728 51.616c-25.008 25.008-65.52 25.008-90.48 0-25.008-24.96-25.008-65.488 0.048-90.48l96.96-96.8c12.496-12.496 28.864-18.768 45.216-18.768 16.32 0 32.688 6.272 45.184 18.768l239.104 238.976c25.008 24.96 25.008 65.488 0 90.48-25.040 25.008-65.52 25.008-90.48 0.048z" />
<glyph unicode="&#xe906;" glyph-name="pad-list" horiz-adv-x="864" d="M677.6 314.265h-298.544c-9.984 0-18.096-8.096-18.096-18.112s8.112-18.112 18.096-18.112h298.528c10.016 0 18.128 8.096 18.128 18.112s-8.112 18.112-18.112 18.112zM624.48 950.857h-384.16c-10 0-18.112-8.096-18.112-18.112v-64.16h-165.152c-29.952 0-54.336-24.384-54.336-54.32v-832.96c0-29.968 24.384-54.336 54.336-54.336h750.704c29.952 0 54.336 24.384 54.336 54.336v832.96c0 29.952-24.384 54.32-54.336 54.32h-165.2v64.16c0.016 10.016-8.096 18.112-18.096 18.112zM258.448 914.649h347.904v-128.48h-347.904v128.48zM807.728 832.329c9.984 0 18.096-8.128 18.096-18.096v-832.96c0-9.984-8.112-18.128-18.096-18.128h-750.704c-9.984 0-18.096 8.128-18.096 18.128v832.96c0 9.984 8.128 18.096 18.096 18.096h165.152v-64.16c0-9.984 8.112-18.096 18.112-18.096h384.16c10 0 18.112 8.112 18.112 18.096v64.16h165.184zM258.56 355.657l-54.848-54.832-14.64 14.624c-7.072 7.072-18.544 7.072-25.616 0s-7.072-18.544 0.016-25.616l27.44-27.408c3.536-3.552 8.176-5.328 12.8-5.328s9.248 1.776 12.784 5.328l67.68 67.616c7.072 7.072 7.072 18.544 0 25.616-7.088 7.072-18.544 7.072-25.616 0zM677.6 467.977h-298.544c-9.984 0-18.096-8.112-18.096-18.096 0-10.016 8.112-18.112 18.096-18.112h298.528c10.016 0 18.128 8.096 18.128 18.112 0 9.984-8.112 18.096-18.112 18.096zM258.56 509.257l-54.848-54.848-14.64 14.608c-7.072 7.072-18.544 7.072-25.616 0s-7.072-18.528 0.016-25.616l27.44-27.424c3.536-3.536 8.176-5.312 12.8-5.312s9.248 1.776 12.784 5.312l67.68 67.648c7.072 7.072 7.072 18.528 0 25.616-7.088 7.072-18.544 7.072-25.616 0.016zM361.008 603.465c0-10.016 8.112-18.128 18.096-18.128h298.528c10.016 0 18.128 8.112 18.128 18.128 0 9.984-8.112 18.096-18.128 18.096h-298.528c-9.984 0-18.096-8.112-18.096-18.096zM258.56 662.905l-54.848-54.848-14.64 14.624c-7.072 7.072-18.544 7.072-25.616 0s-7.072-18.544 0.016-25.616l27.44-27.424c3.536-3.536 8.176-5.296 12.8-5.296s9.248 1.76 12.784 5.296l67.68 67.648c7.072 7.072 7.072 18.528 0 25.6-7.088 7.072-18.544 7.072-25.616 0.016zM677.6 160.617h-298.544c-9.984 0-18.096-8.096-18.096-18.112s8.112-18.112 18.096-18.112h298.528c10.016 0 18.128 8.096 18.128 18.112s-8.112 18.112-18.112 18.112z" />
<glyph unicode="&#xe907;" glyph-name="secupress-simple" d="M982.528 790.089l-6.144-38.4c-61.44 53.248-336.896 46.592-343.040 46.592 0 0-0.512 0-0.512 0l11.264 32.256c-89.088-48.64-184.832-87.040-258.56-158.72-47.616-46.080-168.448-195.584-71.168-250.368-43.52-23.552-78.848-59.392-95.744-106.496-89.088 148.992-152.064 317.952-179.712 489.984 153.6 49.664 320 96.768 482.816 95.232 156.16-1.536 315.904-48.128 463.872-95.232-1.024-5.12-2.048-10.24-3.072-14.848v0zM962.048 691.785v0c-4.096-17.408-7.168-61.952-20.992-77.312-13.824-15.872-54.784-0.512-80.384 0-87.040 3.072-161.792-36.864-235.008-79.36 36.864-64.512-44.544-126.976-101.888-88.064l22.016 41.984c-37.888-19.456-75.776-42.496-119.296-48.64-55.296-8.192-132.608-2.56-108.544 72.704v0c81.408 248.832 438.784 309.248 649.216 202.24l1.536 6.144-6.656-29.696zM866.816 427.081c-10.752-19.968-20.48-40.96-31.232-60.928 0.512 1.024 0.512 2.048 1.024 3.072l-5.632-10.24c0.512 0 0.512 0 1.024 0.512-57.856-106.496-130.56-206.336-219.136-289.792 0 0-69.12 199.68-235.52 206.336 118.272 59.392 260.096 35.328 387.584 38.4l-15.872 105.472c-4.608-15.872-8.704-56.32-19.968-67.072-19.968-18.944-103.424-4.608-135.168-5.12-110.080-2.048-217.088-19.968-308.224-85.504-16.384-11.776-32.256-25.088-45.568-39.936-5.12 51.712 9.728 103.424 47.616 139.776 17.408 16.384 43.52 35.328 67.072 41.472 26.112 6.656 56.832-1.024 84.48 4.096 13.824 2.56 28.672 12.288 41.472 12.8 14.848 0.512 17.92-5.632 32.256-12.8 26.624-13.312 59.904-13.312 87.040-2.048 41.472 16.384 76.288 64 58.368 109.568 90.112 51.2 164.352 77.824 268.8 58.368-16.896-50.176-43.52-97.792-60.416-146.432zM571.392 31.817c-18.432-17.92-41.984-31.232-62.464-46.080-84.48 62.464-160.256 139.776-226.304 229.888 133.12 94.72 254.464-61.44 303.104-171.008v0c-4.608-4.096-9.216-8.192-14.336-12.8v0zM1008.64 832.585c-147.456 48.128-305.152 94.208-461.312 98.816-160.256 5.12-319.488-35.328-471.552-80.384-23.040-6.656-65.024-10.24-71.68-35.328-6.144-23.552 12.8-75.264 17.92-97.792 16.896-74.24 40.448-147.456 68.608-218.112s60.928-138.752 99.84-203.776c10.752-17.92 14.336-26.112 16.384-46.592 2.048-18.944 0-36.864 4.608-55.808 10.752-46.080 27.136-30.208 48.128-2.56 37.888-52.224 80.384-100.864 126.976-145.408 25.088-24.064 95.232-103.936 130.56-98.304 19.968 3.072 47.616 33.792 62.464 46.080 22.528 18.944 44.544 38.4 65.536 58.88 38.912 38.4 75.264 79.36 108.544 122.88 69.632 90.624 125.952 190.976 169.984 296.448 16.896 41.472 133.12 345.088 84.992 360.96v0z" />
<glyph unicode="&#xe908;" glyph-name="antispam" horiz-adv-x="1618" d="M1617.541 925.573c-0.228 2.023-0.531 3.919-1.214 5.79-0.569 1.757-1.378 3.274-2.288 4.842-0.872 1.606-1.795 3.047-2.971 4.463-1.252 1.568-2.819 2.781-4.463 4.045-0.834 0.683-1.454 1.606-2.402 2.174-0.531 0.303-1.138 0.303-1.719 0.569-1.719 0.948-3.578 1.454-5.487 1.985-1.871 0.493-3.616 0.948-5.525 1.1-0.607 0.038-1.176 0.379-1.871 0.379h-1561.031c-0.683 0-1.252-0.341-1.947-0.417-1.795-0.114-3.502-0.569-5.297-1.024-1.947-0.569-3.843-1.062-5.676-2.023-0.493-0.265-1.1-0.265-1.643-0.569-0.986-0.569-1.53-1.492-2.44-2.174-1.643-1.252-3.16-2.478-4.425-4.045-1.214-1.416-2.136-2.857-3.009-4.425-0.91-1.606-1.719-3.123-2.326-4.88-0.569-1.871-0.872-3.767-1.1-5.79-0.152-1.1-0.721-2.099-0.721-3.236v-1164.958c0-15.777 12.844-28.584 28.584-28.584h1561.031c15.777 0 28.584 12.806 28.584 28.584v1164.958c0 1.138-0.493 2.136-0.645 3.236zM1537.024 893.753c-84.752-125.408-356.124-489.295-727.925-617.712-371.775 128.417-643.135 492.304-727.925 617.712h1455.85zM57.154 827.143c79.038-112.488 242.094-318.704 466.805-470.029-228.693-178.884-394.43-402.331-466.805-509.724v979.753zM85.245-214.050c57.079 87.571 237.404 346.087 489.712 538.561 69.885-42.603 145.079-79.341 225.027-106.054 0.038-0.038 0.114 0 0.228-0.038 2.819-0.91 5.79-1.416 8.837-1.416 2.971 0 5.942 0.493 8.799 1.416 0.038 0.038 0.114 0 0.19 0.038 79.986 26.712 155.016 63.463 224.863 105.94 252.309-192.474 432.608-450.914 489.712-538.447h-1447.38zM1560.93-153.078c-72.211 107.229-237.973 330.967-466.995 510.104 224.787 151.287 388.008 357.641 466.995 470.029v-980.132z" />
<glyph unicode="&#xe909;" glyph-name="backups" horiz-adv-x="1394" d="M481.28 510.145c-10.109-10.109-10.109-26.493 0-36.603l197.501-197.392c5-5.076 11.656-7.593 18.29-7.593 6.623 0 13.214 2.516 18.247 7.56l197.719 197.066c10.109 10.109 10.109 26.461 0.065 36.57-10.077 10.142-26.461 10.175-36.603 0.065l-153.927-153.382v568.538c0 14.282-11.591 25.872-25.872 25.872-14.314 0-25.872-11.591-25.872-25.872v-567.666l-152.946 152.837c-10.142 10.109-26.526 10.109-36.635 0zM1389.448 341.261l-229.964 322.135c-4.826 6.83-12.691 10.872-21.079 10.872h-326.917c-14.314 0-25.905-11.591-25.905-25.872s11.591-25.872 25.905-25.872h313.649l194.135-271.97h-339.554c-37.877 0-75.079-28.705-84.633-65.362l-23.563-90.635c-3.693-13.933-20.11-26.635-34.533-26.635h-279.835c-14.347 0-30.807 12.658-34.435 26.635l-23.628 90.57c-9.488 36.744-46.614 65.471-84.524 65.471h-339.336l195.791 271.97h311.754c14.249 0 25.872 11.591 25.872 25.872s-11.623 25.872-25.872 25.872h-324.924c-8.388 0-16.177-3.998-21.046-10.763l-231.947-322.135c-3.17-4.412-4.902-9.695-4.902-15.109v-654.162c0-14.282 11.558-25.872 25.872-25.872h1342.638c14.282 0 25.872 11.591 25.872 25.872v654.162c0 5.381-1.689 10.621-4.826 15.011zM1342.595-301.953h-1290.894v600.783h362.866c14.39 0 30.84-12.691 34.435-26.7l23.628-90.57c9.521-36.679 46.646-65.362 84.524-65.362h279.835c37.877 0 75.003 28.705 84.556 65.362l23.596 90.635c3.628 13.933 20.11 26.668 34.565 26.668h362.866v-600.783z" />
<glyph unicode="&#xe90a;" glyph-name="core" horiz-adv-x="1260" d="M741.415 382.311c30.454 0 240.935 29.046 308.578 38.489 11.628 0.295 35.23 3.426 43.697 23.71 4.244 10.142 5.238 26.378-14.257 46.070l-54.528 54.43 222.267 222.267c2.639 2.471 11.392 11.825 11.658 26.772 0.128 7.838-2.176 19.594-13.834 31.281-12.81 12.741-91.54 91.372-109.617 109.489-10.634 10.634-22.026 16.069-33.782 16.069-13.332 0-23.513-7.148-29.204-14.425l-224.345-224.305-60.524 60.455c-17.447 17.447-38.43 18.206-51.535 4.677-11.323-11.628-12.544-30.494-12.18-37.701l-28.78-306.018c-0.295-3.692-1.054-22.754 12.318-37.238 5.927-6.42 16.66-14.031 34.078-14.031zM771.328 718.941l59.274-59.274c9.62-9.649 25.255-9.649 34.905 0l237.588 237.588c19.889-19.919 80.975-80.975 102.174-102.114l-232.802-232.704c-9.62-9.679-9.58-25.324 0.069-34.934l59.471-59.372c-105.374-14.72-256.886-34.875-287.508-36.352l26.87 287.212zM517.455 259.106c-30.72 0-241.329-29.076-308.578-38.489-11.658-0.295-35.328-3.456-43.766-23.778-4.214-10.171-5.199-26.437 14.425-46.1 16.66-16.492 39.148-38.951 54.498-54.331l-222.336-222.297c-2.668-2.54-11.392-11.953-11.628-26.939-0.098-7.769 2.206-19.495 13.962-31.212 12.908-12.583 91.441-91.274 109.489-109.391 10.703-10.604 22.065-15.97 33.782-15.97 13.401 0 23.542 7.178 29.204 14.484 21.307 21.366 56.674 56.635 94.080 94.011 40.635 40.537 83.702 83.505 114.068 113.969 6.095 6.154 11.559 11.658 16.236 16.335 18.146-18.078 45.903-45.804 60.524-60.455 17.418-17.447 38.39-18.274 51.495-4.677 11.362 11.658 12.544 30.592 12.121 37.799l28.948 305.92c0.295 3.623 1.083 22.626-12.278 37.081-5.927 6.42-16.699 14.090-34.215 14.090zM487.582-77.288c-25.649 25.59-59.274 59.077-59.274 59.077-9.58 9.58-25.088 9.649-34.737 0.128 0 0-13.568-13.332-33.979-34.018-30.297-30.326-73.334-73.295-113.9-113.802-35.102-35.033-68.322-68.224-89.925-89.866-19.889 19.958-80.876 81.103-102.075 102.114l232.704 232.704c9.62 9.649 9.649 25.255 0.030 34.875 0 0-32.67 32.768-59.471 59.372 104.645 14.622 254.671 34.58 287.508 36.283l-26.939-286.917zM1263.104-146.95c-1.447 11.126-7.808 19.495-14.228 24.468l-224.374 224.374c18.146 18.206 45.903 46.031 60.485 60.593 17.684 17.615 14.986 33.162 11.786 40.862-4.283 10.338-15.744 22.686-44.623 22.686h-0.423l-305.723 28.849c-29.204 1.516-51.397-18.402-51.397-46.425 0-32.994 33.625-274.363 38.43-308.578 0.098-3.19 0.532-9.314 2.137-15.744 5.602-22.489 21.366-30.494 34.245-30.494 11.264 0 22.223 5.465 33.487 16.729l54.626 54.567 12.908-12.879c56.832-57.068 167.483-167.582 209.26-209.26 2.57-2.737 12.15-11.687 27.431-11.687 7.641 0 19.102 2.373 30.228 13.499 13.036 12.81 92.002 91.904 109.913 110.011 15.183 15.114 16.994 29.204 15.803 38.39zM1107.623-255.287c-46.69 46.631-148.48 148.283-202.21 202.21l-30.494 30.425c-4.805 4.805-11.097 7.178-17.388 7.178-6.321 0-12.642-2.402-17.447-7.247l-59.668-59.569c-14.553 104.546-34.54 254.799-36.254 287.705l287.015-26.9c-25.62-25.62-59.175-59.274-59.175-59.274-9.62-9.679-9.58-25.324 0.098-34.934l237.588-237.489c-19.692-19.919-80.64-80.876-102.046-102.114zM520.005 777.466c-14.228 14.257-36.549 12.977-56.635-7.010l-54.567-54.528-13.036 13.036c-56.674 56.734-167.385 167.483-209.162 209.034-2.599 2.737-12.18 11.727-27.53 11.727-7.641 0-19.102-2.334-30.257-13.568-12.879-12.78-91.737-91.678-109.686-109.814-15.212-15.143-17.024-29.243-15.842-38.459 1.418-11.195 7.838-19.623 14.287-24.635 31.35-31.252 92.928-92.889 146.895-146.924l77.41-77.351-60.485-60.426c-17.713-17.684-15.015-33.26-11.825-40.93 4.313-10.407 16.335-24.172 44.879-22.686l305.92-28.908c0.63-0.030 2.599-0.098 3.23-0.098 28.386 0 48.207 19.131 48.207 46.533 0 32.965-33.782 273.605-38.695 308.382-0.226 8.527-2.107 25.551-13.105 36.618zM235.106 462.399l59.175 59.038c4.647 4.677 7.247 10.969 7.247 17.556 0 6.558-2.599 12.839-7.276 17.487l-94.799 94.769c-51.702 51.732-110.375 110.405-142.779 142.779 19.692 19.889 80.61 80.807 101.977 102.075 46.73-46.592 148.578-148.382 202.181-202.053l30.494-30.523c4.608-4.677 10.9-7.276 17.447-7.276h0.030c6.558 0 12.839 2.599 17.447 7.247l59.471 59.471c14.72-104.615 34.806-254.799 36.519-287.508l-287.114 26.939z" />
<glyph unicode="&#xe90b;" glyph-name="file-system" horiz-adv-x="1702" d="M197.379 608.083c15.546 0 28.167 12.62 28.167 28.167v234.137c0.372 13.525 11.184 24.15 24.709 24.15h300.564c20.134 0 28.020-14.416 41.572-57.796 10.772-34.59 25.653-82.053 74.912-82.053h784.623c13.671 0 24.789-11.118 24.789-24.749v-93.756c0-15.546 12.62-28.167 28.167-28.167s28.167 12.62 28.167 28.167v93.756c0 44.684-36.385 81.082-81.109 81.082h-784.623c-7.846 0-15.214 23.618-21.145 42.582-12.089 38.713-30.454 97.267-95.352 97.267h-300.564c-44.085 0-79.726-34.59-81.042-79.606v-235.001c0-15.546 12.581-28.167 28.167-28.167zM1695.212 512.372c-5.373 6.011-12.993 9.495-21.065 9.495h-1645.98c-8.032 0-15.732-3.498-21.105-9.495-5.333-6.051-7.846-14.083-6.796-22.116l92.346-752.441c7.7-49.192 43.487-83.556 86.974-83.556h1343.036c26.132 0 72.172 10.705 87.12 84.46l92.306 751.51c0.944 8.032-1.543 16.078-6.875 22.116zM1554.166-252.197c-7.514-37.21-23.126-37.21-31.545-37.21h-1343.036c-16.863 0-28.539 18.1-31.172 35.002l-88.396 719.992h1582.279l-88.104-717.784z" />
<glyph unicode="&#xe90c;" glyph-name="firewall" horiz-adv-x="1110" d="M1005.864-74.007c-45.093-50.003-109.79-78.897-177.349-78.897-68.694 0-133.959 29.474-179.249 81.18-3.232 3.615-6.095 7.415-9.13 11.030 0 0 0 0.185-0.185 0.185-6.28 8.18-11.992 16.729-17.124 25.477-0.185 0.185-0.382 0.568-0.382 0.765-4.762 8.18-8.945 16.729-12.559 25.292-0.568 1.135-1.147 2.467-1.517 3.615-3.232 7.982-5.897 15.965-8.377 24.144-0.568 2.097-1.147 3.997-1.715 6.082-2.097 7.6-3.615 15.397-4.762 23.194-0.382 2.467-0.765 5.132-1.147 7.6-0.95 7.6-1.517 15.212-1.715 23.009v7.797c0 7.797 0.382 15.594 1.147 23.379 0.185 2.282 0.568 4.367 0.95 6.65 1.147 8.18 2.48 16.347 4.38 24.527 0.382 1.517 0.765 2.85 1.147 4.367 2.282 8.55 4.762 17.112 7.995 25.292 0.185 0.382 0.185 0.568 0.382 0.95 19.789-52.668 45.093-92.962 54.42-106.841 1.9-2.85 3.43-5.132 3.8-5.515 5.132-7.415 14.842-10.080 23.219-6.465s12.942 12.547 11.042 21.294l-0.765 3.232c-6.095 27.562-8.747 55.518-8.18 83.462 1.9 83.845 33.866 166.357 91.333 231.757l46.24 52.668c0.765-1.332 1.517-2.665 2.282-4.182 49.090-82.697 74.271-166.542 74.271-249.819 0-9.13 6.662-17.112 15.607-18.629s18.074 3.417 21.122 12.165c0.765 2.097 16.359 44.291 26.834 103.992l35.963-41.071c82.019-93.542 82.969-231.942 2.097-321.635zM437.68-150.77c-34.248 10.647-67.744 25.292-100.278 43.341 3.047 3.417 5.132 7.797 5.132 12.732 0 10.462-8.562 19.012-19.024 19.012-8.377 0-15.224-5.317-17.692-12.732-14.657 9.5-29.301 19.962-43.39 31.176-0.765 0.568-1.517 1.332-2.282 1.9 2.097-0.765 4.182-1.332 6.465-1.332 10.462 0 19.024 8.55 19.024 19.012s-8.562 19.012-19.024 19.012c-10.462 0-19.024-8.55-19.024-19.012 0-3.615 1.332-7.032 3.232-9.882-36.913 30.609-69.644 65.968-97.811 104.941 10.080 0.568 18.272 8.932 18.272 19.197 0 10.462-8.562 19.012-19.024 19.012-7.797 0-14.459-4.75-17.322-11.412-8.377 12.93-16.174 26.242-23.601 39.924 1.715 2.85 2.85 5.897 2.85 9.5 0 9.882-7.612 17.679-17.124 18.629-20.554 43.921-35.963 90.494-46.055 138.783 3.8 3.417 6.095 8.18 6.095 13.694 0 7.797-4.762 14.644-11.609 17.494-3.997 25.477-6.28 51.521-7.045 77.565 10.462 0.382 18.654 8.55 18.654 19.012s-8.562 19.012-19.024 19.012v76.047c10.462 0 19.024 8.55 19.024 19.012s-8.562 19.012-19.024 19.012v76.047c10.462 0 19.024 8.55 19.024 19.012s-8.562 19.012-19.024 19.012v76.047c10.462 0 19.024 8.55 19.024 19.012 0 0.382-0.185 0.765-0.185 1.135 27.784 1.332 54.038 3.8 78.589 7.415-1.332-2.665-2.282-5.515-2.282-8.55 0-10.462 8.562-19.012 19.024-19.012s19.024 8.55 19.024 19.012c0 5.317-2.282 10.080-5.712 13.497 54.617 10.462 100.66 26.044 139.104 43.341 0-10.462 8.562-18.827 19.024-18.827s19.024 8.55 19.024 19.012c0 6.082-3.047 11.215-7.427 14.644 15.409 7.982 29.116 16.162 41.293 24.144 1.332-0.382 2.665-0.765 4.182-0.765 9.709 0 17.322 7.23 18.457 16.544 16.939 12.337 29.881 23.762 38.628 32.126 40.528-38.974 166.69-138.215 399.607-143.533v-268.448c-2.665 1.332-5.712 2.097-8.747 2.097-5.515 0-10.659-2.282-14.274-6.465l-61.81-70.348c-63.562-72.248-98.563-163.877-100.66-256.654-2.665 6.082-5.132 12.732-7.797 19.394-5.712 14.644-11.042 29.844-15.409 46.006-1.9 7.415-7.995 12.93-15.607 14.065-1.9 0.185-3.8 0.185-5.515 0-5.515-0.765-10.462-3.997-13.509-8.747-0.382-0.568-0.765-1.135-0.95-1.9-3.43-5.515-6.662-11.215-9.512-16.915-1.147-2.097-1.9-4.182-3.047-6.28-2.097-4.367-4.38-8.747-6.28-13.312-0.95-2.097-1.715-4.367-2.48-6.465-1.9-4.565-3.615-9.13-5.132-13.88-0.568-1.9-1.147-3.997-1.9-5.897-1.517-5.132-3.047-10.080-4.182-15.212-0.382-1.517-0.765-3.232-1.147-4.75-1.332-5.7-2.48-11.412-3.43-17.112-0.185-1.135-0.382-2.282-0.568-3.417-0.95-6.465-1.715-12.93-2.282-19.579 0-0.382 0-0.765-0.185-1.135-2.665-35.926 1.517-72.050 12.744-106.471 0.382-1.332 0.95-2.665 1.332-3.997 1.715-4.947 3.615-10.080 5.515-15.015 0.95-2.467 2.097-4.947 3.232-7.6 1.517-3.615 3.232-7.032 4.947-10.647 1.715-3.417 3.43-6.65 5.132-9.882 1.332-2.467 2.665-4.947 4.182-7.415 2.282-3.997 4.762-7.797 7.23-11.782 0.382-0.568 0.765-1.332 1.147-1.9-50.423-37.012-104.473-64.833-160.756-82.315zM1032.143 273.006l-63.365 72.050c-4.947 5.7-12.942 7.797-19.974 5.515-7.23-2.282-12.337-8.55-13.127-15.965-1.517-13.497-3.43-26.427-5.515-38.789-10.845 47.721-29.116 95.059-54.617 142.015v342.213c0 10.462-8.562 19.012-19.024 19.012-278.392 0-402.839 143.915-403.987 145.248-7.23 8.747-22.072 8.747-29.301 0-1.332-1.517-124.607-145.248-404.172-145.248-10.462 0-19.024-8.55-19.024-19.012v-362.743c0-198.508 89.248-386.887 238.814-504.376 60.317-47.338 125.397-81.562 193.524-101.709 1.715-0.568 3.615-0.765 5.33-0.765s3.615 0.185 5.33 0.765c62.6 18.629 122.732 49.238 178.867 90.68 52.52-58.936 127.679-92.777 206.651-92.777 78.206 0 153.181 33.274 205.516 91.444 93.998 104.189 93.048 264.266-1.9 372.465zM437.667 837.070c10.499 0 19.024-8.513 19.024-19.012s-8.525-19.012-19.024-19.012c-10.499 0-19.024 8.513-19.024 19.012s8.525 19.012 19.024 19.012zM95.146 722.998c10.499 0 19.024-8.513 19.024-19.012s-8.525-19.012-19.024-19.012c-10.499 0-19.024 8.513-19.024 19.012s8.525 19.012 19.024 19.012zM209.315 722.998c10.499 0 19.024-8.513 19.024-19.012s-8.525-19.012-19.024-19.012c-10.499 0-19.024 8.513-19.024 19.012s8.525 19.012 19.024 19.012zM266.4 780.034c10.499 0 19.024-8.513 19.024-19.012s-8.525-19.012-19.024-19.012c-10.499 0-19.024 8.513-19.024 19.012s8.525 19.012 19.024 19.012zM323.485 722.998c10.499 0 19.024-8.513 19.024-19.012s-8.525-19.012-19.024-19.012c-10.499 0-19.024 8.513-19.024 19.012s8.525 19.012 19.024 19.012zM380.57 780.034c10.499 0 19.024-8.513 19.024-19.012s-8.525-19.012-19.024-19.012c-10.499 0-19.024 8.513-19.024 19.012s8.525 19.012 19.024 19.012zM437.667 722.998c10.499 0 19.024-8.513 19.024-19.012s-8.525-19.012-19.024-19.012c-10.499 0-19.024 8.513-19.024 19.012s8.525 19.012 19.024 19.012zM95.146 608.927c10.499 0 19.024-8.513 19.024-19.012s-8.525-19.012-19.024-19.012c-10.499 0-19.024 8.513-19.024 19.012s8.525 19.012 19.024 19.012zM152.231 665.988c10.499 0 19.024-8.513 19.024-19.012s-8.525-19.012-19.024-19.012c-10.499 0-19.024 8.513-19.024 19.012s8.525 19.012 19.024 19.012zM209.315 608.927c10.499 0 19.024-8.513 19.024-19.012s-8.525-19.012-19.024-19.012c-10.499 0-19.024 8.513-19.024 19.012s8.525 19.012 19.024 19.012zM266.4 665.988c10.499 0 19.024-8.513 19.024-19.012s-8.525-19.012-19.024-19.012c-10.499 0-19.024 8.513-19.024 19.012s8.525 19.012 19.024 19.012zM323.485 608.927c10.499 0 19.024-8.513 19.024-19.012s-8.525-19.012-19.024-19.012c-10.499 0-19.024 8.513-19.024 19.012s8.525 19.012 19.024 19.012zM380.57 665.988c10.499 0 19.024-8.513 19.024-19.012s-8.525-19.012-19.024-19.012c-10.499 0-19.024 8.513-19.024 19.012s8.525 19.012 19.024 19.012zM437.667 608.927c10.499 0 19.024-8.513 19.024-19.012s-8.525-19.012-19.024-19.012c-10.499 0-19.024 8.513-19.024 19.012s8.525 19.012 19.024 19.012zM95.146 494.869c10.499 0 19.024-8.513 19.024-19.012s-8.525-19.012-19.024-19.012c-10.499 0-19.024 8.513-19.024 19.012s8.525 19.012 19.024 19.012zM152.231 551.867c10.499 0 19.024-8.513 19.024-19.012s-8.525-19.012-19.024-19.012c-10.499 0-19.024 8.513-19.024 19.012s8.525 19.012 19.024 19.012zM209.315 494.869c10.499 0 19.024-8.513 19.024-19.012s-8.525-19.012-19.024-19.012c-10.499 0-19.024 8.513-19.024 19.012s8.525 19.012 19.024 19.012zM266.4 551.867c10.499 0 19.024-8.513 19.024-19.012s-8.525-19.012-19.024-19.012c-10.499 0-19.024 8.513-19.024 19.012s8.525 19.012 19.024 19.012zM323.485 494.869c10.499 0 19.024-8.513 19.024-19.012s-8.525-19.012-19.024-19.012c-10.499 0-19.024 8.513-19.024 19.012s8.525 19.012 19.024 19.012zM380.57 551.867c10.499 0 19.024-8.513 19.024-19.012s-8.525-19.012-19.024-19.012c-10.499 0-19.024 8.513-19.024 19.012s8.525 19.012 19.024 19.012zM437.667 494.869c10.499 0 19.024-8.513 19.024-19.012s-8.525-19.012-19.024-19.012c-10.499 0-19.024 8.513-19.024 19.012s8.525 19.012 19.024 19.012zM95.146 380.748c10.499 0 19.024-8.513 19.024-19.012s-8.525-19.012-19.024-19.012c-10.499 0-19.024 8.513-19.024 19.012s8.525 19.012 19.024 19.012zM152.231 437.833c10.499 0 19.024-8.513 19.024-19.012s-8.525-19.012-19.024-19.012c-10.499 0-19.024 8.513-19.024 19.012s8.525 19.012 19.024 19.012zM209.315 380.748c10.499 0 19.024-8.513 19.024-19.012s-8.525-19.012-19.024-19.012c-10.499 0-19.024 8.513-19.024 19.012s8.525 19.012 19.024 19.012zM266.4 437.833c10.499 0 19.024-8.513 19.024-19.012s-8.525-19.012-19.024-19.012c-10.499 0-19.024 8.513-19.024 19.012s8.525 19.012 19.024 19.012zM323.485 380.748c10.499 0 19.024-8.513 19.024-19.012s-8.525-19.012-19.024-19.012c-10.499 0-19.024 8.513-19.024 19.012s8.525 19.012 19.024 19.012zM380.57 437.833c10.499 0 19.024-8.513 19.024-19.012s-8.525-19.012-19.024-19.012c-10.499 0-19.024 8.513-19.024 19.012s8.525 19.012 19.024 19.012zM437.667 380.748c10.499 0 19.024-8.513 19.024-19.012s-8.525-19.012-19.024-19.012c-10.499 0-19.024 8.513-19.024 19.012s8.525 19.012 19.024 19.012zM95.146 266.751c10.499 0 19.024-8.513 19.024-19.012s-8.525-19.012-19.024-19.012c-10.499 0-19.024 8.513-19.024 19.012s8.525 19.012 19.024 19.012zM152.231 323.762c10.499 0 19.024-8.513 19.024-19.012s-8.525-19.012-19.024-19.012c-10.499 0-19.024 8.513-19.024 19.012s8.525 19.012 19.024 19.012zM209.315 266.751c10.499 0 19.024-8.513 19.024-19.012s-8.525-19.012-19.024-19.012c-10.499 0-19.024 8.513-19.024 19.012s8.525 19.012 19.024 19.012zM266.4 323.762c10.499 0 19.024-8.513 19.024-19.012s-8.525-19.012-19.024-19.012c-10.499 0-19.024 8.513-19.024 19.012s8.525 19.012 19.024 19.012zM323.485 266.751c10.499 0 19.024-8.513 19.024-19.012s-8.525-19.012-19.024-19.012c-10.499 0-19.024 8.513-19.024 19.012s8.525 19.012 19.024 19.012zM380.57 323.762c10.499 0 19.024-8.513 19.024-19.012s-8.525-19.012-19.024-19.012c-10.499 0-19.024 8.513-19.024 19.012s8.525 19.012 19.024 19.012zM437.667 266.751c10.499 0 19.024-8.513 19.024-19.012s-8.525-19.012-19.024-19.012c-10.499 0-19.024 8.513-19.024 19.012s8.525 19.012 19.024 19.012zM152.231 209.629c10.499 0 19.024-8.513 19.024-19.012s-8.525-19.012-19.024-19.012c-10.499 0-19.024 8.513-19.024 19.012s8.525 19.012 19.024 19.012zM209.315 152.63c10.499 0 19.024-8.513 19.024-19.012s-8.525-19.012-19.024-19.012c-10.499 0-19.024 8.513-19.024 19.012s8.525 19.012 19.024 19.012zM266.4 209.629c10.499 0 19.024-8.513 19.024-19.012s-8.525-19.012-19.024-19.012c-10.499 0-19.024 8.513-19.024 19.012s8.525 19.012 19.024 19.012zM323.485 152.63c10.499 0 19.024-8.513 19.024-19.012s-8.525-19.012-19.024-19.012c-10.499 0-19.024 8.513-19.024 19.012s8.525 19.012 19.024 19.012zM380.57 209.629c10.499 0 19.024-8.513 19.024-19.012s-8.525-19.012-19.024-19.012c-10.499 0-19.024 8.513-19.024 19.012s8.525 19.012 19.024 19.012zM437.667 152.63c10.499 0 19.024-8.513 19.024-19.012s-8.525-19.012-19.024-19.012c-10.499 0-19.024 8.513-19.024 19.012s8.525 19.012 19.024 19.012zM209.315 38.584c10.499 0 19.024-8.513 19.024-19.012s-8.525-19.012-19.024-19.012c-10.499 0-19.024 8.513-19.024 19.012s8.525 19.012 19.024 19.012zM266.4 95.632c10.499 0 19.024-8.513 19.024-19.012s-8.525-19.012-19.024-19.012c-10.499 0-19.024 8.513-19.024 19.012s8.525 19.012 19.024 19.012zM323.485 38.584c10.499 0 19.024-8.513 19.024-19.012s-8.525-19.012-19.024-19.012c-10.499 0-19.024 8.513-19.024 19.012s8.525 19.012 19.024 19.012zM380.57 95.632c10.499 0 19.024-8.513 19.024-19.012s-8.525-19.012-19.024-19.012c-10.499 0-19.024 8.513-19.024 19.012s8.525 19.012 19.024 19.012zM437.667 38.584c10.499 0 19.024-8.513 19.024-19.012s-8.525-19.012-19.024-19.012c-10.499 0-19.024 8.513-19.024 19.012s8.525 19.012 19.024 19.012zM380.57-18.489c10.499 0 19.024-8.513 19.024-19.012s-8.525-19.012-19.024-19.012c-10.499 0-19.024 8.513-19.024 19.012s8.525 19.012 19.024 19.012z" />
<glyph unicode="&#xe90d;" glyph-name="information" horiz-adv-x="696" d="M431.353 532.684c-27.989 23.539-57.764 35.459-88.497 35.459-88.471 0-174.855-100.575-255.055-209.29-6.091-8.245-5.225-19.692 1.969-26.913 7.221-7.326 18.695-8.166 26.965-2.153 43.205 31.534 98.396 65.26 125.584 74.004-16.016-44.702-80.003-172.111-136.625-285.040-66.586-132.595-107.441-214.856-114.058-238.802-10.043-36.733-5.776-96.072 27.333-139.422 24.865-32.637 61.44-49.9 105.682-49.9 70.341 0 159.114 43.402 264.008 129.077 7.326 6.052 9.649 16.318 5.619 24.93-4.070 8.599-13.391 13.365-22.791 11.513-0.551-0.105-57.068-11.172-115.961-11.172-3.072 0-6.971 0.354-7.943 2.127-3.177 5.501-13.771 41.682 87.696 215.552 100.444 172.111 202.069 381.112 96.072 470.121zM211.6-173.561c4.923-8.573 17.211-22.961 43.927-22.961 15.636 0 30.956 0.696 45.227 1.772-85.727-59.221-142.1-73.111-176.128-73.111-31.206 0-55.664 11.29-72.665 33.582-23.211 30.405-27.779 75.907-20.244 103.293 5.921 21.767 59.366 128.249 111.065 231.227 61.716 122.933 125.558 250.092 140.17 294.059 2.101 6.302 8.415 25.416-2.324 40.277-3.453 4.871-11.763 12.997-27.74 12.997-14.415 0-34.711-7.641-56.267-18.445 49.323 55.716 100.168 97.621 146.248 97.621 20.966 0 41.223-8.415 61.794-25.731 92.816-77.955-56.189-333.496-105.157-417.451-105.288-180.277-102.242-232.094-87.88-257.129zM508.258 951.001c-97.95 0-177.651-79.557-177.651-177.48 0-97.871 79.701-177.454 177.651-177.454 97.766 0 177.323 79.557 177.323 177.454 0 97.871-79.557 177.48-177.323 177.48zM508.258 637.552c-75.106 0-136.153 60.994-136.153 135.956 0 74.988 61.046 135.995 136.153 135.995 74.883 0 135.824-60.994 135.824-135.995 0-74.962-60.941-135.956-135.824-135.956z" />
<glyph unicode="&#xe90e;" glyph-name="logs" horiz-adv-x="1124" d="M62.439 76.711v374.634h999.024v-374.634h-999.024zM187.317-110.606v124.878h749.268v-124.878h-749.268zM187.317 888.418h561.951v-187.317h187.317v-187.317h-749.268v374.634zM811.707 844.274l80.734-80.734h-80.734v80.734zM1092.683 513.784h-93.659v218.537c0 8.279-3.297 16.222-9.141 22.078l-187.317 187.317c-5.857 5.844-13.799 9.141-22.078 9.141h-624.39c-17.246 0-31.22-13.974-31.22-31.22v-405.854h-93.659c-17.246 0-31.22-13.974-31.22-31.22v-437.073c0-17.246 13.974-31.22 31.22-31.22h93.659v-156.098c0-17.246 13.974-31.22 31.22-31.22h811.707c17.246 0 31.22 13.974 31.22 31.22v156.098h93.659c17.246 0 31.22 13.974 31.22 31.22v437.073c0 17.246-13.974 31.22-31.22 31.22zM405.854 201.589h-62.439v187.317h-62.439v-249.756h124.878zM499.512 295.247c0 17.221 13.999 31.22 31.22 31.22s31.22-13.999 31.22-31.22v-62.439c0-17.221-13.999-31.22-31.22-31.22s-31.22 13.999-31.22 31.22v62.439zM530.732 139.15c51.65 0 93.659 42.009 93.659 93.659v62.439c0 51.65-42.009 93.659-93.659 93.659s-93.659-42.009-93.659-93.659v-62.439c0-51.65 42.009-93.659 93.659-93.659zM749.268 139.15h62.439c17.246 0 31.22 13.974 31.22 31.22v93.659c0 17.246-13.974 31.22-31.22 31.22h-62.439v-62.439h31.22v-31.22h-31.22c-17.221 0-31.22 13.999-31.22 31.22v62.439c0 17.221 13.999 31.22 31.22 31.22h62.439v62.439h-62.439c-51.65 0-93.659-42.009-93.659-93.659v-62.439c0-51.65 42.009-93.659 93.659-93.659z" />
<glyph unicode="&#xe90f;" glyph-name="schedule" horiz-adv-x="1075" d="M665.246 316.23c-6.359 7.712-13.843 14.526-22.174 20.303 5.423 4.286 10.417 9.064 14.955 14.349 8.42 9.861 14.993 21.327 19.532 34.108 4.374 12.465 6.574 25.903 6.574 40.012 0 21.062-4.602 39.746-13.666 55.587-8.799 15.284-20.417 27.951-34.551 37.635-13.615 9.38-29.279 16.333-46.586 20.682-37.698 9.507-79.43 8.445-111.73-4.956-18.154-7.535-33.969-18.154-46.839-31.529-13.059-13.438-23.11-29.797-30.037-48.747-6.662-18.394-10.038-38.659-10.038-60.277 0-12.149 9.861-21.997 21.997-21.997h21.416c11.757 0 21.441 9.267 21.997 20.998 0.645 13.931 2.908 26.953 6.776 38.659 3.666 10.935 8.647 19.974 15.196 27.547 6.308 7.244 14.437 13.11 24.171 17.421 17.041 7.446 40.505 9.090 66.029 2.528 9.949-2.617 19.039-6.536 26.902-11.618 7.269-4.665 12.971-10.505 17.484-17.863 4.045-6.662 6.068-14.526 6.068-24.058 0-12.402-2.465-22.326-7.307-29.57-5.246-7.863-11.972-13.868-20.505-18.419-9.444-5.019-20.215-8.394-32.035-10.088-12.971-1.871-26.169-2.49-39.038-1.82-5.841 0.177-11.883-1.846-16.283-6.018-4.374-4.134-6.839-9.911-6.839-15.954v-18.622c0-6.106 2.528-11.934 7.016-16.068 4.463-4.197 10.417-6.511 16.51-5.866 14.601 0.999 28.95 0.493 43.059-1.555 13.021-1.871 24.664-5.6 34.677-11.087 9.090-4.956 16.131-11.732 21.706-20.733 5.335-8.647 8.066-20.24 8.066-34.462 0-11.909-2.288-22.086-6.928-31.125-4.69-9.153-10.999-16.864-18.925-22.996-8.002-6.334-17.623-11.239-28.634-14.576-25.726-7.863-54.828-6.574-76.105 1.53-11.352 4.311-20.556 10.177-28.192 17.977-7.535 7.661-13.173 16.978-17.244 28.634-4.109 11.618-5.891 25.259-5.246 40.568 0.265 5.98-1.934 11.795-6.068 16.131-4.197 4.311-9.911 6.751-15.866 6.751h-21.529c-11.706 0-21.352-9.153-21.972-20.821-1.264-24.576 1.53-46.876 8.268-66.295 6.978-19.911 17.749-37.016 31.997-50.694 13.995-13.704 31.352-24.235 51.478-31.327 19.393-6.801 41.327-10.265 65.144-10.265 20 0 39.367 2.693 57.458 7.952 18.862 5.461 35.701 13.995 49.923 25.284 14.551 11.58 26.194 26.131 34.677 43.147 8.736 17.244 13.173 37.483 13.173 60.125 0 15.689-2.44 30.594-7.155 44.146-4.753 13.818-11.757 26.346-20.796 37.37zM1013.115 863.286h-140.68v59.316c0 12.149-9.823 21.997-21.997 21.997-12.111 0-21.972-9.861-21.972-21.997v-59.316h-271.095v59.316c0 12.149-9.861 21.997-21.997 21.997-12.149 0-21.997-9.861-21.997-21.997v-59.316h-271.183v59.316c0 12.149-9.823 21.997-21.972 21.997s-21.997-9.861-21.997-21.997v-59.316h-137.393c-31.15 0-56.548-25.284-56.548-56.522l0.025-1058.892c0.999-30.745 25.752-54.854 56.522-54.854h952.32c30.707 0 55.524 24.108 56.459 55.561v1058.133c0 31.175-25.284 56.522-56.459 56.522zM850.476 709.155c4.665 0 8.799 1.757 12.351 4.248-3.135-3.135-7.446-5.107-12.2-5.107-3.173 0-5.954 1.087-8.533 2.554 2.642-1.087 5.423-1.707 8.394-1.707zM535.426 709.142c3.021 0 5.891 0.582 8.571 1.707-2.579-1.466-5.373-2.554-8.508-2.554-3.224 0-6.018 1.087-8.597 2.554 2.667-1.112 5.487-1.707 8.533-1.707zM220.274 709.142c3.021 0 5.929 0.582 8.533 1.707-2.528-1.466-5.335-2.554-8.483-2.554-3.173 0-5.954 1.087-8.533 2.554 2.617-1.112 5.423-1.707 8.483-1.707zM60.884-263.025c-6.801 0-12.288 5.373-12.49 11.555v188.378h640.86c-14.728-62.211-44.5-142.349-103.955-199.933h-524.402zM1025.606-250.826c-0.202-6.713-5.803-12.2-12.465-12.2h-355.745c37.635 32.996 76.105 73.21 116.218 115.282l21.352 22.376c63.008 65.852 165.231 177.62 230.665 274.344v-399.802zM707.432-153.293c27.661 69.544 36.434 135.433 39.165 165.61 24.791 6.245 75.498 21.264 145.876 53.501 8.951 4.109 17.623 8.647 26.131 13.552-53.766-66.054-113.462-130.554-155.37-174.383l-21.441-22.44c-11.555-12.174-23.021-24.197-34.348-35.903zM1025.643 235.384c-16.662-21.997-75.498-94.688-151.565-129.593-94.221-43.147-151.653-53.855-152.209-53.969-10.152-1.846-17.711-10.531-18.103-20.859 0-0.619-0.847-20.303-5.626-50.125h-649.671l-0.063 825.774c0 6.89 5.626 12.528 12.553 12.528h137.393v-36.573c-22.97-8.887-39.304-31.036-39.304-57.053 0-33.817 27.509-61.301 61.364-61.301 33.729 0 61.25 27.484 61.25 61.301 0 26.042-16.397 48.216-39.329 57.079v36.548h271.183v-36.548c-22.97-8.887-39.367-31.036-39.367-57.079 0-33.817 27.572-61.301 61.427-61.301 33.767 0 61.25 27.484 61.25 61.301 0 26.042-16.397 48.216-39.304 57.079v36.548h271.095v-36.573c-22.907-8.913-39.241-31.036-39.241-57.053 0-33.817 27.509-61.301 61.364-61.301 33.729 0 61.25 27.484 61.25 61.301 0 26.080-16.46 48.254-39.392 57.116v36.523h140.68c6.865 0 12.465-5.626 12.465-12.528v-571.291z" />
<glyph unicode="&#xe910;" glyph-name="sensitive-data" horiz-adv-x="1012" d="M866.424 480.66l-721.016-0.169c-78.896-9.999-138.397-77.246-138.397-156.407v-467.691c0-87.353 71.042-158.395 158.395-158.395h683.803c87.245 0 158.298 71.042 158.298 158.395v467.691c0 79.173-59.525 146.444-141.035 156.576zM966.198-143.606c0-64.572-52.501-117.073-116.941-117.073h-683.803c-64.572 0-117.073 52.501-117.073 117.073v467.691c0 58.404 43.96 108.014 99.689 115.254l715.836 0.169c58.32-7.385 102.316-57.019 102.316-115.423v-467.691zM147.637 530.692c11.348-0.638 20.878 8.758 21.155 20.215 3.807 169.261 149.384 358.665 338.522 358.665 189.271 0 334.812-189.356 338.522-358.665 0.193-11.264 9.397-20.215 20.661-20.215h0.41c11.409 0.253 20.444 9.722 20.251 21.131-4.156 188.753-161.093 399.119-379.82 399.119-218.534 0-375.627-210.318-379.868-399.119-0.277-11.409 8.758-20.853 20.167-21.131zM507.35 270.62c-60.717 0-110.219-49.501-110.219-110.351 0-40.743 21.95-77.186 56.971-96.497v-111.616c0-29.335 23.877-53.224 53.248-53.224 29.395 0 53.332 23.877 53.332 53.224v111.676c35.045 19.203 56.971 55.645 56.971 96.376 0 60.838-49.441 110.351-110.303 110.351zM532.504 96.154c-7.939-3.108-13.143-10.746-13.143-19.251v-124.759c0-6.554-5.373-11.902-12.011-11.902-6.722 0-11.927 5.228-11.927 11.902v124.711c0 8.517-5.204 16.119-13.107 19.251-26.636 10.469-43.851 35.647-43.851 64.102 0 38.069 30.913 69.030 68.897 69.030 38.069 0 68.981-30.961 68.981-69.030 0-28.455-17.215-53.609-43.827-64.042z" />
<glyph unicode="&#xe911;" glyph-name="services" horiz-adv-x="1225" d="M524.154 338.467c0-53.545 43.582-97.117 97.069-97.117 53.545 0 97.146 43.582 97.146 97.117 0 53.545-43.601 97.098-97.146 97.098-53.497 0-97.069-43.553-97.069-97.098zM682.089 338.467c0-33.543-27.303-60.847-60.866-60.847-33.495 0-60.799 27.303-60.799 60.847 0 33.514 27.303 60.818 60.799 60.818 33.562 0 60.866-27.303 60.866-60.818zM165.467 375.398c0.699-0.096 1.455-0.144 2.172-0.144 9.044 0 16.901 6.747 17.992 15.963 23.696 196.876 177.621 352.974 374.286 379.655 9.943 1.33 16.929 10.47 15.551 20.384-1.33 9.895-10.355 16.949-20.413 15.551-213.002-28.902-379.751-197.986-405.389-411.236-1.187-9.943 5.905-18.987 15.839-20.164zM612.505 627.302c10.010 0 18.135 8.125 18.135 18.135v287.294c0 10.010-8.125 18.135-18.135 18.135s-18.135-8.125-18.135-18.135v-287.294c0-10.010 8.125-18.135 18.135-18.135zM665.562 772.786c200.015-21.14 362.745-181.612 386.919-381.56 1.091-9.216 8.919-15.963 17.944-15.963 0.746 0 1.455 0.048 2.22 0.144 9.915 1.187 17.025 10.23 15.819 20.164-26.117 216.562-202.312 390.364-419.046 413.332-10.010 1.091-18.911-6.192-19.954-16.126-1.043-9.962 6.144-18.891 16.126-19.954zM1072.645 301.497c-9.895 1.206-19.006-5.857-20.164-15.819-24.136-199.9-186.818-360.352-386.919-381.493-9.991-1.062-17.169-9.991-16.126-19.954 0.995-9.312 8.852-16.231 18.020-16.231 0.651 0 1.282 0.029 1.933 0.096 216.705 22.93 392.948 196.685 419.046 413.237 1.206 9.962-5.905 19.006-15.819 20.164zM323.661 338.495c0 10.010-8.125 18.135-18.135 18.135h-287.39c-10.039 0-18.135-8.125-18.135-18.135s8.106-18.135 18.135-18.135h287.39c10.010 0 18.135 8.125 18.135 18.135zM612.486 49.67c-10.010 0-18.135-8.125-18.135-18.135v-287.39c0-10.010 8.125-18.135 18.135-18.135s18.135 8.125 18.135 18.135v287.39c0 10.010-8.125 18.135-18.135 18.135zM1206.789 356.679h-287.294c-10.010 0-18.135-8.125-18.135-18.135s8.125-18.135 18.135-18.135h287.294c10.039 0 18.164 8.125 18.164 18.135s-8.125 18.135-18.164 18.135zM559.946-93.881c-196.637 26.605-350.562 182.693-374.286 379.579-1.187 9.962-10.403 16.996-20.164 15.819-9.943-1.158-17.025-10.202-15.839-20.164 25.705-213.25 192.359-382.335 405.389-411.16 0.823-0.124 1.665-0.172 2.469-0.172 8.919 0 16.709 6.603 17.944 15.695 1.378 9.915-5.608 19.054-15.551 20.413z" />
<glyph unicode="&#xe912;" glyph-name="themes-plugins" horiz-adv-x="1125" d="M519.198 375.045h35.556c14.62 0 26.553-11.933 26.553-26.614v-120.416c0-12.106 9.855-21.93 21.96-21.93s21.899 9.824 21.899 21.93v120.416c0 38.861-31.551 70.474-70.413 70.474h-38.719c-1.085 0-2.109-0.091-3.133-0.233h-395.811c-40.382 0-73.16 32.839-73.16 73.221v159.044c0 40.271 32.778 73.049 73.16 73.049h21.352c12.106 0 21.93 9.824 21.93 21.93s-9.824 21.93-21.93 21.93h-21.352c-64.542 0-117.060-52.457-117.060-116.908v-159.044c0-64.563 52.518-117.091 117.060-117.091h398.954c1.054 0 2.109 0.091 3.153 0.233zM962.631 950.847h-633.156c-87.811 0-159.278-71.477-159.278-159.338v-132.208c0-87.841 71.477-159.338 159.278-159.338h633.156c87.871 0 159.308 71.477 159.308 159.338v132.208c0 87.871-71.477 159.338-159.308 159.338zM1078.11 659.27c0-63.66-51.818-115.479-115.479-115.479h-633.156c-63.63 0-115.418 51.818-115.418 115.479v132.208c0 63.691 51.788 115.479 115.418 115.479h633.156c63.66 0 115.479-51.788 115.479-115.479v-132.208zM645.647 191.576h-84.333c-45.644 0-82.782-37.138-82.782-82.812v-372.837c0-45.644 37.138-82.812 82.782-82.812h84.333c45.644 0 82.812 37.168 82.812 82.812v372.837c0 45.674-37.168 82.812-82.812 82.812zM684.6-264.073c0-21.463-17.489-38.953-38.953-38.953h-84.333c-21.433 0-38.922 17.489-38.922 38.953v372.837c0 21.494 17.489 38.953 38.922 38.953h84.333c21.463 0 38.953-17.459 38.953-38.953v-372.837z" />
<glyph unicode="&#xe913;" glyph-name="user-login" horiz-adv-x="1260" d="M630.154 432.26c143.006 0 259.367 116.332 259.367 259.348 0 142.937-116.362 259.249-259.367 259.249-142.937 0-259.22-116.313-259.22-259.249 0-143.006 116.283-259.348 259.22-259.348zM630.154 913.53c122.437 0 222.050-99.564 222.050-221.922 0-122.437-99.614-222.021-222.050-222.021-122.358 0-221.903 99.594-221.903 222.021 0 122.358 99.545 221.922 221.903 221.922zM1021.282 520.088c-35.476 0-68.716 11.894-96.158 34.383-7.936 6.548-19.692 5.396-26.25-2.59-6.548-7.966-5.376-19.692 2.59-26.27 33.684-27.618 76.229-42.841 119.818-42.841 104.517 0 189.529 84.992 189.529 189.46 0 104.448-85.012 189.41-189.529 189.41-43.638 0-86.183-15.202-119.847-42.821-7.936-6.518-9.108-18.284-2.56-26.25 6.518-7.966 18.314-9.127 26.27-2.609 26.969 22.164 61.125 34.363 96.138 34.363 83.919 0 152.212-68.224 152.212-152.094 0-83.889-68.293-152.143-152.212-152.143zM898.452 296.846c-67.397 112.335-208.935 98.274-212.894 97.674h-115.269c-5.071 0.098-118.942 3.082-185.826-93.076-37.1-53.189-91.579-257.28-110.74-342.242-2.284-10.073 4.027-20.057 14.080-22.321 10.053-2.314 20.027 4.027 22.292 14.11 20.155 89.206 73.295 283.648 104.99 329.108 55.030 79.163 153.137 76.928 154.555 77.105l117.908 0.098c1.241 0.148 124.672 12.012 179.426-80.512 0.423-0.719 0.896-1.418 1.418-2.087 33.615-42.417 89.886-233.344 110.612-323.781 1.989-8.635 9.679-14.484 18.186-14.484 1.369 0 2.757 0.148 4.185 0.443 10.023 2.314 16.325 12.318 14.011 22.39-16.276 70.932-73.945 281.61-116.933 337.526zM238.966 482.722c43.618 0 86.203 15.222 119.897 42.841 7.966 6.548 9.127 18.314 2.59 26.27-6.548 7.985-18.284 9.127-26.25 2.59-27.441-22.489-60.702-34.383-96.236-34.383-83.919 0-152.192 68.244-152.192 152.143 0 83.87 68.273 152.094 152.192 152.094 35.525 0 68.766-11.865 96.138-34.363 7.985-6.518 19.791-5.346 26.27 2.609 6.548 7.966 5.376 19.692-2.59 26.25-33.634 27.618-76.209 42.821-119.818 42.821-104.497 0-189.509-84.962-189.509-189.41 0-104.468 85.012-189.46 189.509-189.46zM1259.914 220.637c-19.889 89.669-39.956 149.474-59.668 177.822-49.014 70.587-133.031 68.391-135.897 68.322l-80.207-0.128c-4.057 0.551-100.362 10.102-151.966-62.917-5.947-8.409-3.929-20.076 4.48-26.004 8.389-5.918 20.057-3.958 26.004 4.48 38.735 54.863 116.657 47.498 119.434 47.242h82.924c0.65 0.473 67.023 1.792 104.596-52.293 11.618-16.719 30.405-58.86 53.839-164.578 1.94-8.684 9.649-14.631 18.215-14.631 1.339 0 2.688 0.148 4.027 0.443 10.073 2.235 16.423 12.19 14.208 22.242zM402.206 375.192c5.278-8.911 16.699-11.845 25.551-6.548 8.881 5.248 11.815 16.699 6.567 25.551-49.329 83.318-153.708 72.95-156.091 72.576h-81.556c-3.387 0-87.552 2.343-136.586-68.322-19.791-28.485-39.857-88.32-59.569-177.822-2.215-10.073 4.155-20.027 14.208-22.242 1.369-0.295 2.708-0.443 4.027-0.443 8.556 0 16.295 5.947 18.215 14.651 18.166 82.324 37.268 140.77 53.819 164.549 37.199 53.612 101.809 52.293 105.295 52.293l84.165 0.098c0.866 0.098 85.041 8.064 122.014-54.361z" />
<glyph unicode="&#xe914;" glyph-name="squared-cross" d="M819.2 870.4h-614.4c-56.32 0-102.4-46.080-102.4-102.4v-614.4c0-56.32 46.080-102.4 102.4-102.4h614.4c56.32 0 102.4 46.080 102.4 102.4v614.4c0 56.32-46.080 102.4-102.4 102.4zM668.723 215.603l-156.723 156.672-156.723-156.672-88.525 88.474 156.723 156.723-156.672 156.723 88.525 88.525 156.672-156.723 156.621 156.723 88.525-88.525-156.621-156.723 156.672-156.723-88.474-88.474z" />
<glyph unicode="&#xe915;" glyph-name="bell" horiz-adv-x="960" d="M102.4 131.657l102.4 204.8v273.12c0 150.8 122.272 273.12 273.12 273.12 150.8 0 273.12-122.272 273.12-273.12v-273.12l102.4-204.8h-750.928zM477.984-4.871c-44.544 0-82.016 28.576-96.16 68.272h192.16c-14.096-39.696-51.568-68.272-96.16-68.272zM819.152 336.457v273.12c0 188.48-152.848 341.328-341.328 341.328s-341.328-152.848-341.328-341.328v-273.12l-136.528-273.12h310.64c15.808-77.888 84.656-136.528 167.216-136.528 82.576 0 151.408 58.64 167.216 136.528h310.64l-136.528 273.12z" />
<glyph unicode="&#xe916;" glyph-name="folder" d="M951.36 782.985h-583.328c-6.912 0-11.52 13.12-17.76 33.072-8.848 28.192-22.128 70.8-68.864 70.8h-223.264c-31.6 0-57.088-24.768-58.064-56.944l-0.048-768.48c0-32.16 26.096-58.176 58.112-58.176h893.2c32 0 58.096 26.080 58.096 58.176v663.456c0 32-26.080 58.144-58.096 58.144zM971.952 61.433c0-11.408-9.248-20.704-20.608-20.704h-893.2c-11.36 0-20.656 9.296-20.656 20.704l0.048 552.304h934.4v-552.304zM971.936 651.209h-934.4v178.208c0.352 11.232 9.408 20.032 20.608 20.032h223.264c17.36 0 23.408-13.568 33.072-44.512 7.84-25.056 18.576-59.36 53.552-59.36h583.328c11.36 0 20.608-9.264 20.608-20.672v-73.68z" />
<glyph unicode="&#xe917;" glyph-name="mail2" d="M960 182.857c0-6.496-1.248-12.64-3.040-18.496l-284.96 306.56 288 224v-512zM113.792 120.649l288.8 307.712 109.44-82.72 104.704 83.232 293.504-308.224c-4.576-1.056-791.84-1.056-796.416 0zM64.032 182.921v512l288-224-284.96-306.56c-1.792 5.856-3.040 12-3.040 18.496zM928.032 758.857l-416-320-416 320h832zM896.032 822.857h-768c-70.688 0-128-57.312-128-128v-512c0-70.688 57.312-128 128-128h768c70.688 0 128 57.312 128 128v512c0 70.688-57.312 128-128 128z" />
<glyph unicode="&#xe918;" glyph-name="smartphone" horiz-adv-x="736" d="M368 22.857c26.496 0 48 21.504 48 48s-21.504 48-48 48c-26.496 0-48-21.504-48-48s21.504-48 48-48zM672 790.857h-608v32c0 35.328 28.672 64 64 64h480c35.328 0 64-28.672 64-64v-32zM64 726.857h608v-512h-608v512zM672 54.857c0-35.328-28.672-64-64-64h-480c-35.328 0-64 28.672-64 64v96h608v-96zM608 950.857h-480c-70.688 0-128-57.312-128-128v-768c0-70.688 57.312-128 128-128h480c70.688 0 128 57.312 128 128v768c0 70.688-57.312 128-128 128z" />
<glyph unicode="&#xe919;" glyph-name="upcloud" d="M716 334.217c6.4 6.496 6.352 16.928-0.128 23.328l-192.32 190.416c-6.4 6.384-16.8 6.384-23.232 0l-192.32-190.4c-6.496-6.416-6.528-16.864-0.128-23.36 3.184-3.232 7.472-4.864 11.728-4.864 4.208 0 8.384 1.584 11.584 4.752l164.4 162.768v-449.6c0-9.104 7.36-16.496 16.496-16.496 9.104 0 16.496 7.392 16.496 16.496v449.12l164-162.416c6.464-6.416 16.928-6.336 23.328 0.112zM900.192 579.273c0.112 2.8 0.16 5.616 0.16 8.416 0 142.848-116.24 259.040-259.056 259.040-86.48 0-167.344-43.632-215.2-115.008-32.544 21.904-71.168 33.808-110.624 33.808-105.504 0-192-83.024-197.552-188.832-72.048-34.112-118.064-108.304-118.064-192 0-116.192 90.064-210.736 200.688-210.736h222.528c9.104 0 16.496 7.392 16.496 16.496s-7.392 16.496-16.496 16.496h-222.528c-92.464 0-167.696 79.744-167.696 177.76 0 72.928 43.232 139.6 107.552 165.872 6.176 2.528 10.176 10.4 10.176 17.088 0 90.944 73.968 164.912 164.88 164.912 38.064 0 75.28-13.312 104.688-37.504 3.744-3.056 8.688-4.352 13.456-3.472s8.928 3.824 11.328 8.032c40.256 70.416 115.472 114.144 196.352 114.144 124.656 0 226.080-101.392 226.080-226.080 0-6.096-0.336-12.048-0.816-17.984-0.592-7.44 3.856-14.32 10.816-16.848 67.872-24.544 113.488-92.128 113.488-168.192 0-98-75.2-177.76-167.632-177.76h-222.528c-9.104 0-16.496-7.392-16.496-16.496s7.392-16.496 16.496-16.496h222.528c110.624 0 200.624 94.544 200.624 210.736 0 85.552-49.216 162.16-123.648 194.592z" />
<glyph unicode="&#xe91a;" glyph-name="clock" d="M818.72 156.745c-6.816 6.816-17.856 6.816-24.688 0-6.816-6.816-6.816-17.872 0-24.688l34.672-34.656c-80.48-74.72-186.752-121.792-303.888-126.064v122.576c0 9.648-7.824 17.456-17.456 17.456s-17.456-7.808-17.456-17.456v-122.576c-117.136 4.288-223.472 51.344-303.872 126.064l34.672 34.656c6.816 6.8 6.816 17.856 0 24.688-6.816 6.816-17.856 6.816-24.688 0l-34.672-34.656c-74.368 80-121.36 185.76-126.016 302.24h133.136c9.632 0 17.456 7.808 17.456 17.456s-7.824 17.456-17.456 17.456h-133.232c3.904 117.776 51.040 224.8 126.096 305.44l34.672-34.656c3.408-3.408 7.872-5.104 12.352-5.104 4.464 0 8.944 1.696 12.352 5.104 6.816 6.816 6.816 17.872 0 24.688l-34.672 34.656c80.48 74.72 186.752 121.792 303.872 126.064v-122.576c0-9.648 7.824-17.456 17.456-17.456s17.456 7.808 17.456 17.456v122.592c117.136-4.288 223.472-51.344 303.888-126.064l-34.672-34.656c-6.816-6.8-6.816-17.856 0-24.688 3.408-3.408 7.872-5.104 12.352-5.104 4.464 0 8.944 1.696 12.352 5.104l34.672 34.656c75.44-81.168 122.672-188.816 126.144-307.36h-122.832c-9.632 0-17.456-7.808-17.456-17.456s7.824-17.456 17.456-17.456h122.64c-5.056-115.792-51.984-220.848-125.968-300.48l-34.672 34.656zM866.88 85.593c91.328 91.808 147.872 218.256 147.872 357.68s-56.544 265.872-147.872 357.68c-0.304 0.352-0.416 0.784-0.752 1.12-0.32 0.32-0.768 0.448-1.12 0.752-91.824 91.344-218.256 147.904-357.696 147.904-139.424 0-265.872-56.544-357.696-147.872-0.352-0.304-0.784-0.416-1.12-0.752-0.32-0.32-0.448-0.768-0.752-1.12-91.328-91.824-147.888-218.272-147.888-357.696s56.544-265.872 147.872-357.68c0.304-0.352 0.416-0.784 0.752-1.136 0.32-0.336 0.768-0.448 1.136-0.752 91.808-91.328 218.256-147.872 357.68-147.872 139.408 0 265.872 56.544 357.68 147.872 0.352 0.304 0.784 0.416 1.136 0.752 0.336 0.32 0.448 0.768 0.752 1.12zM762.592 654.121l-258.4-191.408-143.28 44.272c-9.152 2.8-18.976-2.304-21.824-11.52-2.832-9.216 2.32-18.976 11.536-21.824l151.712-46.864c0.16-0.048 0.32-0.032 0.496-0.064 1.472-0.4 2.976-0.672 4.512-0.688 0.048 0 0.112-0.016 0.144-0.016 0.656 0 1.296 0.24 1.936 0.32 1.168 0.128 2.32 0.192 3.456 0.56 1.776 0.576 3.424 1.44 4.912 2.544 0.016 0.016 0.048 0.016 0.064 0.032l265.552 196.624c7.744 5.744 9.376 16.672 3.632 24.416-5.744 7.776-16.656 9.376-24.416 3.648z" />
<glyph unicode="&#xe91b;" glyph-name="ip-trash" horiz-adv-x="967" d="M691.2 291.003h25.486c23.836 0 41.643 4.722 53.476 14.108 11.833 9.444 17.749 23.097 17.749 41.131 0 18.148-4.949 31.573-14.848 40.277-9.899 8.647-25.486 13.028-46.649 13.028h-35.271v-108.487zM364.089 848.457h119.467c10.866 0 20.252-3.925 28.046-11.719 7.851-7.851 11.776-17.18 11.776-28.103v-39.822h-517.689v39.822c0 10.866 3.925 20.252 11.776 28.103s17.18 11.719 28.103 11.719h119.467c4.494 22.812 16.27 41.813 35.214 56.889 19.001 15.132 40.391 22.699 64.341 22.699 23.893 0 45.34-7.566 64.284-22.699 19.001-15.132 30.72-34.133 35.271-56.889zM204.857 848.457h119.467c-4.267 11.435-12.004 20.878-23.324 28.444-11.264 7.566-23.438 11.378-36.409 11.378-13.028 0-25.145-3.755-36.466-11.378-11.264-7.566-19.058-17.067-23.324-28.444zM45.511 728.99h438.044c0 0 0-95.516 0-167.708 0-60.53-31.687-48.868-31.687-48.868 0-10.866-28.388 7.851-36.181 0-7.851-7.851 2.446-164.068-8.42-164.068 0 0 12.174-57.458 0-57.458h-321.934c-10.866 0-20.252 3.925-28.103 11.776s-11.719 17.18-11.719 28.046v398.222zM164.978 370.533v278.756h-39.822v-278.756h39.822zM284.444 370.533v278.756h-39.822v-278.756h39.822zM403.911 370.533v278.756h-39.822v-278.756h39.822zM625.778-73.143c188.53 0 341.333 152.804 341.333 341.333s-152.804 341.333-341.333 341.333c-188.53 0-341.333-152.804-341.333-341.333s152.804-341.333 341.333-341.333zM444.245 97.524v365.511h77.483v-365.511h-77.483zM866.247 349.029c0-39.31-12.288-69.404-36.864-90.226s-59.563-31.232-104.903-31.232h-33.223v-129.991h-77.483v365.511h116.736c44.316 0 78.052-9.557 101.148-28.615s34.645-47.559 34.645-85.39z" />
<glyph unicode="&#xe91c;" glyph-name="user-trash" d="M409.6 835.657h134.4c12.224 0 22.784-4.416 31.552-13.184 8.832-8.832 13.248-19.328 13.248-31.616v-44.8h-582.4v44.8c0 12.224 4.416 22.784 13.248 31.616s19.328 13.184 31.616 13.184h134.4c5.056 25.664 18.304 47.040 39.616 64 21.376 17.024 45.44 25.536 72.384 25.536 26.88 0 51.008-8.512 72.32-25.536 21.376-17.024 34.56-38.4 39.68-64zM230.464 835.657h134.4c-4.8 12.864-13.504 23.488-26.24 32-12.672 8.512-26.368 12.8-40.96 12.8-14.656 0-28.288-4.224-41.024-12.8-12.672-8.512-21.44-19.2-26.24-32zM51.2 701.257h492.8v-448c0-12.224-4.416-22.784-13.248-31.552-8.832-8.832-19.328-13.248-31.616-13.248h-403.2c-12.224 0-22.784 4.416-31.616 13.248s-13.184 19.328-13.184 31.552v448zM185.536 298.057v313.6h-44.8v-313.6h44.8zM319.936 298.057v313.6h-44.8v-313.6h44.8zM454.336 298.057v313.6h-44.8v-313.6h44.8zM1024 56.329c0-40-12.16-71.552-36.48-94.72s-56.64-34.752-97.024-34.752h-436.992c-40.32 0-72.64 11.584-97.024 34.752-24.32 23.168-36.48 54.72-36.48 94.72 0 17.664 0.576 34.944 1.728 51.776s3.52 35.008 6.976 54.528c3.52 19.52 7.936 37.568 13.248 54.272 5.312 16.64 12.48 32.896 21.504 48.768 9.024 15.808 19.328 29.312 30.976 40.512 11.648 11.136 25.92 20.096 42.752 26.752s35.392 9.984 55.744 9.984c3.008 0 9.984-3.584 20.992-10.752s23.424-15.168 37.248-24c13.824-8.832 31.808-16.832 54.016-24 22.144-7.168 44.416-10.752 66.752-10.752s44.608 3.584 66.752 10.752c22.144 7.168 40.192 15.168 54.016 24s26.24 16.832 37.248 24c11.008 7.168 17.984 10.752 20.992 10.752 20.352 0 38.912-3.328 55.744-9.984s31.104-15.552 42.752-26.752c11.648-11.136 22.016-24.64 30.976-40.512 9.024-15.808 16.192-32.064 21.504-48.768 5.312-16.64 9.728-34.752 13.248-54.272s5.824-37.696 6.976-54.528c1.152-16.832 1.728-34.112 1.728-51.776zM863.872 502.857c0-52.992-18.752-98.24-56.256-135.744s-82.752-56.256-135.744-56.256c-52.992 0-98.24 18.752-135.744 56.256s-56.256 82.752-56.256 135.744c0 52.992 18.752 98.24 56.256 135.744s82.752 56.256 135.744 56.256c52.992 0 98.24-18.752 135.744-56.256s56.256-82.752 56.256-135.744z" />
<glyph unicode="&#xe91d;" glyph-name="manuals" d="M301.176 694.857v-421.602c0-0.060-0.045-0.030 0.030-0.030h436.631c0 0 0.030 0.045 0.030 0.030v421.602c0 0.060 0.045 0.030-0.030 0.030h-436.631c0 0-0.030-0.045-0.030-0.030zM271.059 694.857c0 16.655 13.553 30.118 30.118 30.118h436.631c16.655 0 30.118-13.387 30.118-30.118v-421.602c0-16.655-13.553-30.118-30.118-30.118h-436.631c-16.655 0-30.118 13.387-30.118 30.118v421.602zM361.412 602.546c0-9.427 7.635-17.062 17.032-17.062h280.968c9.427 0 17.062 7.635 17.062 17.062 0 9.397-7.635 17.032-17.062 17.032h-280.968c-9.397 0-17.032-7.635-17.032-17.032zM361.412 527.252c0-9.427 7.635-17.062 17.032-17.062h280.968c9.427 0 17.062 7.635 17.062 17.062 0 9.397-7.635 17.032-17.062 17.032h-280.968c-9.397 0-17.032-7.635-17.032-17.032zM455.981 433.888l-51.622-51.622-13.779 13.764c-6.656 6.656-17.453 6.656-24.109 0s-6.656-17.453 0.015-24.109l25.826-25.811c3.328-3.328 7.695-4.984 12.047-4.984s8.704 1.656 12.032 4.984l63.699 63.669c6.656 6.656 6.656 17.438 0 24.094-6.671 6.656-17.453 6.656-24.109 0.015zM512-73.143c282.775 0 512 229.225 512 512s-229.225 512-512 512c-282.775 0-512-229.225-512-512s229.225-512 512-512zM512-43.025c-266.135 0-481.882 215.748-481.882 481.882s215.748 481.882 481.882 481.882c266.135 0 481.882-215.748 481.882-481.882s-215.748-481.882-481.882-481.882zM669.666 364.241l-24.712 24.712 24.712 24.712c1.506 1.506 2.349 3.614 2.349 5.707 0 2.108-0.843 4.201-2.349 5.707l-11.43 11.43c-1.506 1.506-3.614 2.349-5.707 2.349-2.108 0-4.201-0.843-5.707-2.349l-24.712-24.712-24.712 24.712c-1.506 1.506-3.614 2.349-5.707 2.349-2.108 0-4.201-0.843-5.707-2.349l-11.43-11.43c-1.506-1.506-2.349-3.614-2.349-5.707 0-2.108 0.843-4.201 2.349-5.707l24.712-24.712-24.712-24.712c-1.506-1.506-2.349-3.614-2.349-5.707 0-2.108 0.843-4.201 2.349-5.707l11.43-11.43c1.506-1.506 3.614-2.349 5.707-2.349 2.108 0 4.201 0.843 5.707 2.349l24.712 24.712 24.712-24.712c1.506-1.506 3.614-2.349 5.707-2.349 2.108 0 4.201 0.843 5.707 2.349l11.43 11.43c1.506 1.506 2.349 3.614 2.349 5.707 0 2.108-0.843 4.201-2.349 5.707zM436.706 152.739c0-8.317-6.742-15.059-15.059-15.059s-15.059 6.742-15.059 15.059c0 8.317 6.742 15.059 15.059 15.059s15.059-6.742 15.059-15.059zM527.059 152.739c0-8.317-6.742-15.059-15.059-15.059s-15.059 6.742-15.059 15.059c0 8.317 6.742 15.059 15.059 15.059s15.059-6.742 15.059-15.059zM617.412 152.739c0-8.317-6.742-15.059-15.059-15.059s-15.059 6.742-15.059 15.059c0 8.317 6.742 15.059 15.059 15.059s15.059-6.742 15.059-15.059z" />
<glyph unicode="&#xe91e;" glyph-name="autofix" d="M758.212 351.712h-280.983c-9.397 0-17.032-7.62-17.032-17.047s7.635-17.047 17.032-17.047h280.968c9.427 0 17.062 7.62 17.062 17.047s-7.635 17.047-17.047 17.047zM363.836 390.669l-51.622-51.607-13.779 13.764c-6.656 6.656-17.453 6.656-24.109 0s-6.656-17.453 0.015-24.109l25.826-25.796c3.328-3.343 7.695-5.015 12.047-5.015s8.704 1.672 12.032 5.015l63.699 63.639c6.656 6.656 6.656 17.453 0 24.109-6.671 6.656-17.453 6.656-24.109 0zM758.212 496.321h-280.983c-9.397 0-17.032-7.635-17.032-17.032 0-9.427 7.635-17.047 17.032-17.047h280.968c9.427 0 17.062 7.62 17.062 17.047 0 9.397-7.635 17.032-17.047 17.032zM363.836 535.233l-51.622-51.622-13.779 13.749c-6.656 6.656-17.453 6.656-24.109 0s-6.656-17.438 0.015-24.109l25.826-25.811c3.328-3.328 7.695-5 12.047-5s8.704 1.672 12.032 5l63.699 63.669c6.656 6.656 6.656 17.438 0 24.109-6.671 6.656-17.453 6.656-24.109 0.015zM460.243 623.9c0-9.427 7.635-17.062 17.032-17.062h280.968c9.427 0 17.062 7.635 17.062 17.062 0 9.397-7.635 17.032-17.062 17.032h-280.968c-9.397 0-17.032-7.635-17.032-17.032zM363.836 679.843l-51.622-51.622-13.779 13.764c-6.656 6.656-17.453 6.656-24.109 0s-6.656-17.453 0.015-24.109l25.826-25.811c3.328-3.328 7.695-4.984 12.047-4.984s8.704 1.656 12.032 4.984l63.699 63.669c6.656 6.656 6.656 17.438 0 24.094-6.671 6.656-17.453 6.656-24.109 0.015zM758.212 207.102h-280.983c-9.397 0-17.032-7.62-17.032-17.047s7.635-17.047 17.032-17.047h280.968c9.427 0 17.062 7.62 17.062 17.047s-7.635 17.047-17.047 17.047zM512-73.143c282.775 0 512 229.225 512 512s-229.225 512-512 512c-282.775 0-512-229.225-512-512s229.225-512 512-512zM512-43.025c-266.135 0-481.882 215.748-481.882 481.882s215.748 481.882 481.882 481.882c266.135 0 481.882-215.748 481.882-481.882s-215.748-481.882-481.882-481.882z" />
<glyph unicode="&#xe91f;" glyph-name="exclamation-o" d="M512 950.857c-282.358 0-512-229.642-512-512s229.642-512 512-512c282.358 0 512 229.642 512 512s-229.642 512-512 512v-93.091c230.945 0 418.909-187.964 418.909-418.909s-187.964-418.909-418.909-418.909c-230.945 0-418.909 187.964-418.909 418.909s187.964 418.909 418.909 418.909v93.091zM465.667 230.524c0 18.667 5 32.778 15 42.333s24.555 14.333 43.667 14.333c18.445 0 32.722-4.889 42.833-14.667s15.167-23.778 15.167-42c0-17.556-5.111-31.389-15.333-41.5s-24.444-15.167-42.667-15.167c-18.667 0-33.111 4.944-43.333 14.833s-15.333 23.833-15.333 41.833v0zM565.333 344.524h-81.333l-17 325.667h115.333z" />
<glyph unicode="&#xe920;" glyph-name="clock-o-2" d="M682.624 310.857c-6.4 0-12.928 1.451-19.029 4.48l-170.667 85.333c-14.464 7.253-23.595 22.016-23.595 38.187v298.667c0 23.552 19.115 42.667 42.667 42.667s42.667-19.115 42.667-42.667v-272.299l147.072-73.557c21.077-10.539 29.611-36.181 19.072-57.259-7.467-14.933-22.528-23.552-38.187-23.552zM512 950.857c-282.358 0-512-229.642-512-512s229.642-512 512-512c282.358 0 512 229.642 512 512s-229.642 512-512 512v-93.091c230.945 0 418.909-187.964 418.909-418.909s-187.964-418.909-418.909-418.909c-230.945 0-418.909 187.964-418.909 418.909s187.964 418.909 418.909 418.909v93.091z" />
<glyph unicode="&#xe921;" glyph-name="cross-o" d="M645.926 625.692v0c14.942 14.76 38.981 14.943 53.924 0.182 14.84-14.66 14.78-38.487-0.184-53.269l-322.075-318.159c-14.942-14.76-38.981-14.943-53.924-0.182-14.84 14.66-14.78 38.487 0.184 53.269l322.075 318.159 29.985-30.354c-1.578-1.559-4.27-1.572-6.045 0.182-2.105 2.079-2.094 5.552-0.184 7.439l-322.075-318.159c1.578 1.559 4.27 1.572 6.045-0.182 2.105-2.079 2.094-5.552 0.184-7.439l322.075 318.159-29.985 30.354zM323.882 572.635v0c-14.942 14.76-15.127 38.507-0.184 53.269 14.84 14.66 38.96 14.6 53.924-0.182l322.075-318.159c14.942-14.76 15.127-38.507 0.184-53.269-14.84-14.66-38.96-14.6-53.924 0.182l-322.075 318.159 29.985 30.354c1.866-1.844 1.883-5.397-0.184-7.439-1.813-1.791-4.424-1.783-6.045-0.182l322.075-318.159c-1.866 1.844-1.883 5.397 0.184 7.439 1.813 1.791 4.424 1.783 6.045 0.182l-322.075 318.159-29.985-30.354zM512 950.857c-282.358 0-512-229.642-512-512s229.642-512 512-512c282.358 0 512 229.642 512 512s-229.642 512-512 512v-93.091c230.945 0 418.909-187.964 418.909-418.909s-187.964-418.909-418.909-418.909c-230.945 0-418.909 187.964-418.909 418.909s187.964 418.909 418.909 418.909v93.091z" />
<glyph unicode="&#xe922;" glyph-name="info-o" d="M524.648 898.702c-266.111 0-482.486-217.781-482.486-485.437 0-267.654 216.373-485.426 482.486-485.426s482.497 217.773 482.497 485.426c0 267.654-216.384 485.437-482.497 485.437v-53.895c236.269 0 428.602-193.576 428.602-431.542 0-237.964-192.33-431.531-428.602-431.531-236.269 0-428.591 193.565-428.591 431.531 0 237.969 192.324 431.542 428.591 431.542v53.895zM589.652 510.592l-55.907-265.69c-2.341-10.156-3.088-17.957-3.088-25.005 0-21.887 10.052-28.935 31.848-28.935 13.927 0 20.183 2.326 24.835 4.662-3.915-55.454-43.514-80.459-85.444-80.459-46.592 0-83.093 28.123-83.093 93.803 0 14.799 2.341 32.004 6.216 50.792l52.818 250.842 111.813-0.010zM554.715 713.651c34.16 0 62.123-28.113 62.123-62.483 0-34.409-27.973-61.78-62.123-61.78-34.189 0-61.336 27.371-61.336 61.78-0.010 34.369 27.147 62.483 61.336 62.483v0z" />
<glyph unicode="&#xe923;" glyph-name="grade-down" d="M992.372-61.149c-4.849-4.849-10.736-7.273-17.663-7.273l-383.396 15.585c-10.39 0.693-17.49 5.715-21.3 15.066-3.463 9.698-1.732 18.010 5.195 24.936l116.37 116.37-648.345 648.345c-4.849 4.849-7.273 10.39-7.273 16.624s2.424 11.775 7.273 16.624l99.745 99.745c4.849 4.849 10.39 7.273 16.624 7.273s11.775-2.424 16.624-7.273l648.345-648.345 116.37 116.37c7.273 7.273 15.585 9.005 24.936 5.195s14.546-10.736 15.585-20.78l17.663-381.318c0-6.927-2.251-12.641-6.754-17.144v0z" />
<glyph unicode="&#xe924;" glyph-name="grade-up" d="M1002.572 896.354c4.849-4.849 7.273-10.736 7.273-17.663l-15.585-383.396c-0.693-10.39-5.715-17.49-15.066-21.3-9.698-3.463-18.010-1.732-24.936 5.195l-116.37 116.37-648.345-648.345c-4.849-4.849-10.39-7.273-16.624-7.273s-11.775 2.424-16.624 7.273l-99.745 99.745c-4.849 4.849-7.273 10.39-7.273 16.624s2.424 11.775 7.273 16.624l648.345 648.345-116.37 116.37c-7.273 7.273-9.005 15.585-5.195 24.936s10.736 14.546 20.78 15.585l381.318 17.663c6.927 0 12.641-2.251 17.144-6.754v0z" />
<glyph unicode="&#xe925;" glyph-name="clock2" d="M537.997 11.765v31.054c0 14.42-11.682 26.122-26.122 26.122-14.399 0-26.122-11.703-26.122-26.122v-31.033c-215.5 13.187-388.075 185.992-400.886 401.596h30.469c14.399 0 26.122 11.703 26.122 26.122s-11.724 26.122-26.122 26.122h-30.407c13.396 215.040 185.804 387.239 400.948 400.321v-29.947c0-14.42 11.724-26.122 26.122-26.122 14.44 0 26.122 11.703 26.122 26.122v29.947c215.186-13.061 387.615-185.323 400.948-400.468h-30.532c-14.44 0-26.122-11.703-26.122-26.122s11.682-26.122 26.122-26.122h30.574c-12.873-215.625-185.532-388.451-401.115-401.471zM512.042 950.857c-282.331 0-512.042-229.669-512.042-512s229.71-512 512.042-512c282.29 0 511.958 229.669 511.958 512s-229.669 512-511.958 512zM511.916 417.959c-17.262 0-31.263 14.043-31.263 31.305s14.002 31.305 31.263 31.305c17.241 0 31.263-14.043 31.263-31.305s-14.023-31.305-31.263-31.305zM716.967 491.060h-145.283c-4.89 7.001-10.971 13.082-17.972 17.993v211.926c0 23.071-18.704 41.796-41.796 41.796-23.071 0-41.796-18.725-41.796-41.796v-211.926c-18.85-13.249-31.263-35.067-31.263-59.789 0-40.312 32.768-73.101 73.059-73.101 24.743 0 46.561 12.434 59.768 31.305h145.283c23.092 0 41.796 18.725 41.796 41.796s-18.683 41.796-41.796 41.796z" />
<glyph unicode="&#xe926;" glyph-name="data-base" d="M1024 449.751v104.579c0 10.894-13.072 17.43-21.787 10.894-106.757-84.97-298.485-128.545-490.213-128.545-189.549 0-381.277 43.574-490.213 128.545-8.715 6.536-21.787 0-21.787-10.894v-113.294c0-122.009 228.766-222.23 512-222.23s512 100.221 512 224.409v6.536zM1024 157.802v104.579c0 10.894-13.072 17.43-21.787 10.894-106.757-84.97-298.485-128.545-490.213-128.545-189.549 0-381.277 43.574-490.213 128.545-8.715 6.536-21.787 0-21.787-10.894v-113.294c0-122.009 228.766-222.23 512-222.23s512 100.221 512 224.409v6.536zM512 950.857c282.777 0 512-100.461 512-224.409s-229.223-224.409-512-224.409c-282.777 0-512 100.461-512 224.409s229.223 224.409 512 224.409z" />
<glyph unicode="&#xe927;" glyph-name="sheet" horiz-adv-x="755" d="M115.687 162.208c-6.508-0.612-11.294-6.368-10.681-12.877 0.613-6.497 6.378-11.276 12.886-10.664h518.749c6.508-0.094 11.86 5.108 11.955 11.605 0.083 6.497-5.117 11.841-11.624 11.935h-519.079c-0.731 0.071-1.474 0.071-2.205 0v0zM115.687 291.679c-6.508-0.612-11.294-6.368-10.681-12.877 0.613-6.497 6.378-11.276 12.886-10.664h518.749c6.508-0.094 11.86 5.108 11.955 11.605 0.083 6.497-5.117 11.841-11.624 11.935h-519.079c-0.731 0.071-1.474 0.071-2.205 0v0zM115.687 421.15c-6.508-0.612-11.294-6.368-10.681-12.877 0.613-6.497 6.378-11.276 12.886-10.664h518.749c6.508-0.094 11.86 5.108 11.955 11.605 0.083 6.497-5.117 11.841-11.624 11.935h-519.079c-0.731 0.071-1.474 0.071-2.205 0v0zM115.687 550.621c-6.508-0.612-11.294-6.368-10.681-12.877 0.613-6.497 6.378-11.276 12.886-10.664h518.749c6.508-0.094 11.86 5.108 11.955 11.605 0.083 6.497-5.117 11.841-11.624 11.935h-519.079c-0.731 0.071-1.474 0.071-2.205 0v0zM115.687 680.093c-6.508-0.612-11.294-6.368-10.681-12.877 0.613-6.497 6.378-11.276 12.886-10.664h259.368c6.52-0.094 11.872 5.108 11.966 11.605 0.083 6.497-5.117 11.841-11.624 11.935h-259.71c-0.731 0.071-1.474 0.071-2.205 0v0zM565.903 910.716l148.465-148.233h-148.465v148.233zM23.587 927.265h518.737v-176.552c0-6.497 5.27-11.77 11.789-11.77h176.842v-776.828h-707.368v965.149zM9.581 950.805c-5.635-1.071-9.679-6.038-9.585-11.77v-988.69c0.012-6.497 5.282-11.77 11.789-11.77h730.959c6.508 0 11.778 5.273 11.789 11.77v800.368c0.071 3.154-1.132 6.191-3.325 8.463l-188.632 188.322c-2.264 2.189-5.317 3.378-8.465 3.307h-542.328c-0.731 0.071-1.474 0.071-2.205 0v0z" />
<glyph unicode="&#xf004;" glyph-name="heart" d="M512 0q-14.857 0-25.143 10.286l-356.571 344q-5.714 4.571-15.714 14.857t-31.714 37.429-38.857 55.714-30.571 69.143-13.429 78.857q0 125.714 72.571 196.571t200.571 70.857q35.429 0 72.286-12.286t68.571-33.143 54.571-39.143 43.429-38.857q20.571 20.571 43.429 38.857t54.571 39.143 68.571 33.143 72.286 12.286q128 0 200.571-70.857t72.571-196.571q0-126.286-130.857-257.143l-356-342.857q-10.286-10.286-25.143-10.286z" />
<glyph unicode="&#xf005;" glyph-name="star" horiz-adv-x="951" d="M950.857 581.143q0-12.571-14.857-27.429l-207.429-202.286 49.143-285.714q0.571-4 0.571-11.429 0-12-6-20.286t-17.429-8.286q-10.857 0-22.857 6.857l-256.571 134.857-256.571-134.857q-12.571-6.857-22.857-6.857-12 0-18 8.286t-6 20.286q0 3.429 1.143 11.429l49.143 285.714-208 202.286q-14.286 15.429-14.286 27.429 0 21.143 32 26.286l286.857 41.714 128.571 260q10.857 23.429 28 23.429t28-23.429l128.571-260 286.857-41.714q32-5.143 32-26.286z" />
<glyph unicode="&#xf006;" glyph-name="star-empty" horiz-adv-x="951" d="M649.714 377.143l174.857 169.714-241.143 35.429-108 218.286-108-218.286-241.143-35.429 174.857-169.714-41.714-240.571 216 113.714 215.429-113.714zM950.857 581.143q0-12.571-14.857-27.429l-207.429-202.286 49.143-285.714q0.571-4 0.571-11.429 0-28.571-23.429-28.571-10.857 0-22.857 6.857l-256.571 134.857-256.571-134.857q-12.571-6.857-22.857-6.857-12 0-18 8.286t-6 20.286q0 3.429 1.143 11.429l49.143 285.714-208 202.286q-14.286 15.429-14.286 27.429 0 21.143 32 26.286l286.857 41.714 128.571 260q10.857 23.429 28 23.429t28-23.429l128.571-260 286.857-41.714q32-5.143 32-26.286z" />
<glyph unicode="&#xf007;" glyph-name="user" horiz-adv-x="805" d="M804.571 148q0-68.571-41.714-108.286t-110.857-39.714h-499.429q-69.143 0-110.857 39.714t-41.714 108.286q0 30.286 2 59.143t8 62.286 15.143 62 24.571 55.714 35.429 46.286 48.857 30.571 63.714 11.429q5.143 0 24-12.286t42.571-27.429 61.714-27.429 76.286-12.286 76.286 12.286 61.714 27.429 42.571 27.429 24 12.286q34.857 0 63.714-11.429t48.857-30.571 35.429-46.286 24.571-55.714 15.143-62 8-62.286 2-59.143zM621.714 658.286q0-90.857-64.286-155.143t-155.143-64.286-155.143 64.286-64.286 155.143 64.286 155.143 155.143 64.286 155.143-64.286 64.286-155.143z" />
<glyph unicode="&#xf008;" glyph-name="film" horiz-adv-x="1097" d="M219.429 36.571v73.143q0 14.857-10.857 25.714t-25.714 10.857h-73.143q-14.857 0-25.714-10.857t-10.857-25.714v-73.143q0-14.857 10.857-25.714t25.714-10.857h73.143q14.857 0 25.714 10.857t10.857 25.714zM219.429 256v73.143q0 14.857-10.857 25.714t-25.714 10.857h-73.143q-14.857 0-25.714-10.857t-10.857-25.714v-73.143q0-14.857 10.857-25.714t25.714-10.857h73.143q14.857 0 25.714 10.857t10.857 25.714zM219.429 475.428v73.143q0 14.857-10.857 25.714t-25.714 10.857h-73.143q-14.857 0-25.714-10.857t-10.857-25.714v-73.143q0-14.857 10.857-25.714t25.714-10.857h73.143q14.857 0 25.714 10.857t10.857 25.714zM804.571 36.571v292.571q0 14.857-10.857 25.714t-25.714 10.857h-438.857q-14.857 0-25.714-10.857t-10.857-25.714v-292.571q0-14.857 10.857-25.714t25.714-10.857h438.857q14.857 0 25.714 10.857t10.857 25.714zM219.429 694.857v73.143q0 14.857-10.857 25.714t-25.714 10.857h-73.143q-14.857 0-25.714-10.857t-10.857-25.714v-73.143q0-14.857 10.857-25.714t25.714-10.857h73.143q14.857 0 25.714 10.857t10.857 25.714zM1024 36.571v73.143q0 14.857-10.857 25.714t-25.714 10.857h-73.143q-14.857 0-25.714-10.857t-10.857-25.714v-73.143q0-14.857 10.857-25.714t25.714-10.857h73.143q14.857 0 25.714 10.857t10.857 25.714zM804.571 475.428v292.571q0 14.857-10.857 25.714t-25.714 10.857h-438.857q-14.857 0-25.714-10.857t-10.857-25.714v-292.571q0-14.857 10.857-25.714t25.714-10.857h438.857q14.857 0 25.714 10.857t10.857 25.714zM1024 256v73.143q0 14.857-10.857 25.714t-25.714 10.857h-73.143q-14.857 0-25.714-10.857t-10.857-25.714v-73.143q0-14.857 10.857-25.714t25.714-10.857h73.143q14.857 0 25.714 10.857t10.857 25.714zM1024 475.428v73.143q0 14.857-10.857 25.714t-25.714 10.857h-73.143q-14.857 0-25.714-10.857t-10.857-25.714v-73.143q0-14.857 10.857-25.714t25.714-10.857h73.143q14.857 0 25.714 10.857t10.857 25.714zM1024 694.857v73.143q0 14.857-10.857 25.714t-25.714 10.857h-73.143q-14.857 0-25.714-10.857t-10.857-25.714v-73.143q0-14.857 10.857-25.714t25.714-10.857h73.143q14.857 0 25.714 10.857t10.857 25.714zM1097.143 786.286v-768q0-37.714-26.857-64.571t-64.571-26.857h-914.286q-37.714 0-64.571 26.857t-26.857 64.571v768q0 37.714 26.857 64.571t64.571 26.857h914.286q37.714 0 64.571-26.857t26.857-64.571z" />
<glyph unicode="&#xf00c;" glyph-name="check" d="M954.857 627.428q0-22.857-16-38.857l-491.429-491.429q-16-16-38.857-16t-38.857 16l-284.571 284.571q-16 16-16 38.857t16 38.857l77.714 77.714q16 16 38.857 16t38.857-16l168-168.571 374.857 375.429q16 16 38.857 16t38.857-16l77.714-77.714q16-16 16-38.857z" />
<glyph unicode="&#xf00d;" glyph-name="cross" horiz-adv-x="805" d="M741.714 195.428q0-22.857-16-38.857l-77.714-77.714q-16-16-38.857-16t-38.857 16l-168 168-168-168q-16-16-38.857-16t-38.857 16l-77.714 77.714q-16 16-16 38.857t16 38.857l168 168-168 168q-16 16-16 38.857t16 38.857l77.714 77.714q16 16 38.857 16t38.857-16l168-168 168 168q16 16 38.857 16t38.857-16l77.714-77.714q16-16 16-38.857t-16-38.857l-168-168 168-168q16-16 16-38.857z" />
<glyph unicode="&#xf013;" glyph-name="cog, gear" horiz-adv-x="878" d="M585.143 438.857q0 60.571-42.857 103.429t-103.429 42.857-103.429-42.857-42.857-103.429 42.857-103.429 103.429-42.857 103.429 42.857 42.857 103.429zM877.714 501.143v-126.857q0-6.857-4.571-13.143t-11.429-7.429l-105.714-16q-10.857-30.857-22.286-52 20-28.571 61.143-78.857 5.714-6.857 5.714-14.286t-5.143-13.143q-15.429-21.143-56.571-61.714t-53.714-40.571q-6.857 0-14.857 5.143l-78.857 61.714q-25.143-13.143-52-21.714-9.143-77.714-16.571-106.286-4-16-20.571-16h-126.857q-8 0-14 4.857t-6.571 12.286l-16 105.143q-28 9.143-51.429 21.143l-80.571-61.143q-5.714-5.143-14.286-5.143-8 0-14.286 6.286-72 65.143-94.286 96-4 5.714-4 13.143 0 6.857 4.571 13.143 8.571 12 29.143 38t30.857 40.286q-15.429 28.571-23.429 56.571l-104.571 15.429q-7.429 1.143-12 7.143t-4.571 13.429v126.857q0 6.857 4.571 13.143t10.857 7.429l106.286 16q8 26.286 22.286 52.571-22.857 32.571-61.143 78.857-5.714 6.857-5.714 13.714 0 5.714 5.143 13.143 14.857 20.571 56.286 61.429t54 40.857q7.429 0 14.857-5.714l78.857-61.143q25.143 13.143 52 21.714 9.143 77.714 16.571 106.286 4 16 20.571 16h126.857q8 0 14-4.857t6.571-12.286l16-105.143q28-9.143 51.429-21.143l81.143 61.143q5.143 5.143 13.714 5.143 7.429 0 14.286-5.714 73.714-68 94.286-97.143 4-4.571 4-12.571 0-6.857-4.571-13.143-8.571-12-29.143-38t-30.857-40.286q14.857-28.571 23.429-56l104.571-16q7.429-1.143 12-7.143t4.571-13.429z" />
<glyph unicode="&#xf017;" glyph-name="clock-o" horiz-adv-x="878" d="M512 640v-256q0-8-5.143-13.143t-13.143-5.143h-182.857q-8 0-13.143 5.143t-5.143 13.143v36.571q0 8 5.143 13.143t13.143 5.143h128v201.143q0 8 5.143 13.143t13.143 5.143h36.571q8 0 13.143-5.143t5.143-13.143zM749.714 438.857q0 84.571-41.714 156t-113.143 113.143-156 41.714-156-41.714-113.143-113.143-41.714-156 41.714-156 113.143-113.143 156-41.714 156 41.714 113.143 113.143 41.714 156zM877.714 438.857q0-119.429-58.857-220.286t-159.714-159.714-220.286-58.857-220.286 58.857-159.714 159.714-58.857 220.286 58.857 220.286 159.714 159.714 220.286 58.857 220.286-58.857 159.714-159.714 58.857-220.286z" />
<glyph unicode="&#xf019;" glyph-name="download" horiz-adv-x="951" d="M731.429 182.857q0 14.857-10.857 25.714t-25.714 10.857-25.714-10.857-10.857-25.714 10.857-25.714 25.714-10.857 25.714 10.857 10.857 25.714zM877.714 182.857q0 14.857-10.857 25.714t-25.714 10.857-25.714-10.857-10.857-25.714 10.857-25.714 25.714-10.857 25.714 10.857 10.857 25.714zM950.857 310.857v-182.857q0-22.857-16-38.857t-38.857-16h-841.143q-22.857 0-38.857 16t-16 38.857v182.857q0 22.857 16 38.857t38.857 16h265.714l77.143-77.714q33.143-32 77.714-32t77.714 32l77.714 77.714h265.143q22.857 0 38.857-16t16-38.857zM765.143 636q9.714-23.429-8-40l-256-256q-10.286-10.857-25.714-10.857t-25.714 10.857l-256 256q-17.714 16.571-8 40 9.714 22.286 33.714 22.286h146.286v256q0 14.857 10.857 25.714t25.714 10.857h146.286q14.857 0 25.714-10.857t10.857-25.714v-256h146.286q24 0 33.714-22.286z" />
<glyph unicode="&#xf021;" glyph-name="refresh" horiz-adv-x="878" d="M863.429 347.428q0-2.857-0.571-4-36.571-153.143-153.143-248.286t-273.143-95.143q-83.429 0-161.429 31.429t-139.143 89.714l-73.714-73.714q-10.857-10.857-25.714-10.857t-25.714 10.857-10.857 25.714v256q0 14.857 10.857 25.714t25.714 10.857h256q14.857 0 25.714-10.857t10.857-25.714-10.857-25.714l-78.286-78.286q40.571-37.714 92-58.286t106.857-20.571q76.571 0 142.857 37.143t106.286 102.286q6.286 9.714 30.286 66.857 4.571 13.143 17.143 13.143h109.714q7.429 0 12.857-5.429t5.429-12.857zM877.714 804.571v-256q0-14.857-10.857-25.714t-25.714-10.857h-256q-14.857 0-25.714 10.857t-10.857 25.714 10.857 25.714l78.857 78.857q-84.571 78.286-199.429 78.286-76.571 0-142.857-37.143t-106.286-102.286q-6.286-9.714-30.286-66.857-4.571-13.143-17.143-13.143h-113.714q-7.429 0-12.857 5.429t-5.429 12.857v4q37.143 153.143 154.286 248.286t274.286 95.143q83.429 0 162.286-31.714t140-89.429l74.286 73.714q10.857 10.857 25.714 10.857t25.714-10.857 10.857-25.714z" />
<glyph unicode="&#xf023;" glyph-name="lock" horiz-adv-x="658" d="M182.857 512h292.571v109.714q0 60.571-42.857 103.429t-103.429 42.857-103.429-42.857-42.857-103.429v-109.714zM658.286 457.143v-329.143q0-22.857-16-38.857t-38.857-16h-548.571q-22.857 0-38.857 16t-16 38.857v329.143q0 22.857 16 38.857t38.857 16h18.286v109.714q0 105.143 75.429 180.571t180.571 75.429 180.571-75.429 75.429-180.571v-109.714h18.286q22.857 0 38.857-16t16-38.857z" />
<glyph unicode="&#xf057;" glyph-name="times-circle" horiz-adv-x="878" d="M656.571 309.714q0 14.857-10.857 25.714l-103.429 103.429 103.429 103.429q10.857 10.857 10.857 25.714 0 15.429-10.857 26.286l-51.429 51.429q-10.857 10.857-26.286 10.857-14.857 0-25.714-10.857l-103.429-103.429-103.429 103.429q-10.857 10.857-25.714 10.857-15.429 0-26.286-10.857l-51.429-51.429q-10.857-10.857-10.857-26.286 0-14.857 10.857-25.714l103.429-103.429-103.429-103.429q-10.857-10.857-10.857-25.714 0-15.429 10.857-26.286l51.429-51.429q10.857-10.857 26.286-10.857 14.857 0 25.714 10.857l103.429 103.429 103.429-103.429q10.857-10.857 25.714-10.857 15.429 0 26.286 10.857l51.429 51.429q10.857 10.857 10.857 26.286zM877.714 438.857q0-119.429-58.857-220.286t-159.714-159.714-220.286-58.857-220.286 58.857-159.714 159.714-58.857 220.286 58.857 220.286 159.714 159.714 220.286 58.857 220.286-58.857 159.714-159.714 58.857-220.286z" />
<glyph unicode="&#xf05a;" glyph-name="info-disk" horiz-adv-x="878" d="M585.143 164.571v91.429q0 8-5.143 13.143t-13.143 5.143h-54.857v292.571q0 8-5.143 13.143t-13.143 5.143h-182.857q-8 0-13.143-5.143t-5.143-13.143v-91.429q0-8 5.143-13.143t13.143-5.143h54.857v-182.857h-54.857q-8 0-13.143-5.143t-5.143-13.143v-91.429q0-8 5.143-13.143t13.143-5.143h256q8 0 13.143 5.143t5.143 13.143zM512 676.571v91.429q0 8-5.143 13.143t-13.143 5.143h-109.714q-8 0-13.143-5.143t-5.143-13.143v-91.429q0-8 5.143-13.143t13.143-5.143h109.714q8 0 13.143 5.143t5.143 13.143zM877.714 438.857q0-119.429-58.857-220.286t-159.714-159.714-220.286-58.857-220.286 58.857-159.714 159.714-58.857 220.286 58.857 220.286 159.714 159.714 220.286 58.857 220.286-58.857 159.714-159.714 58.857-220.286z" />
<glyph unicode="&#xf062;" glyph-name="arrow-up" horiz-adv-x="951" d="M920.571 396q0-29.143-21.143-51.429l-42.857-42.857q-21.714-21.714-52-21.714-30.857 0-51.429 21.714l-168 167.429v-402.286q0-29.714-21.429-48.286t-51.714-18.571h-73.143q-30.286 0-51.714 18.571t-21.429 48.286v402.286l-168-167.429q-20.571-21.714-51.429-21.714t-51.429 21.714l-42.857 42.857q-21.714 21.714-21.714 51.429 0 30.286 21.714 52l372 372q20 21.143 51.429 21.143 30.857 0 52-21.143l372-372q21.143-22.286 21.143-52z" />
<glyph unicode="&#xf068;" glyph-name="minus" horiz-adv-x="805" d="M804.571 530.286v-109.714q0-22.857-16-38.857t-38.857-16h-694.857q-22.857 0-38.857 16t-16 38.857v109.714q0 22.857 16 38.857t38.857 16h694.857q22.857 0 38.857-16t16-38.857z" />
<glyph unicode="&#xf084;" glyph-name="key" horiz-adv-x="962" d="M475.429 658.286q0 45.714-32 77.714t-77.714 32-77.714-32-32-77.714q0-24 10.857-47.429-23.429 10.857-47.429 10.857-45.714 0-77.714-32t-32-77.714 32-77.714 77.714-32 77.714 32 32 77.714q0 24-10.857 47.429 23.429-10.857 47.429-10.857 45.714 0 77.714 32t32 77.714zM961.714 256q0-9.714-28-37.714t-37.714-28q-5.143 0-16.286 9.143t-20.857 18.857-22 22.857-14 14.857l-54.857-54.857 125.714-125.714q16-16 16-38.857 0-24-22.286-46.286t-46.286-22.286q-22.857 0-38.857 16l-383.429 383.429q-100.571-74.857-208.571-74.857-93.143 0-151.714 58.571t-58.571 151.714q0 91.429 54.286 178.857t141.714 141.714 178.857 54.286q93.143 0 151.714-58.571t58.571-151.714q0-108-74.857-208.571l202.857-202.857 54.857 54.857q-1.714 1.714-14.857 14t-22.857 22-18.857 20.857-9.143 16.286q0 9.714 28 37.714t37.714 28q7.429 0 13.143-5.714 3.429-3.429 26.286-25.429t46.857-45.429 49.429-49.143 41.714-44.571 16.286-23.429z" />
<glyph unicode="&#xf085;" glyph-name="cogs, gears" horiz-adv-x="1097" d="M512 438.857q0 60.571-42.857 103.429t-103.429 42.857-103.429-42.857-42.857-103.429 42.857-103.429 103.429-42.857 103.429 42.857 42.857 103.429zM950.857 146.286q0 29.714-21.714 51.429t-51.429 21.714-51.429-21.714-21.714-51.429q0-30.286 21.429-51.714t51.714-21.429 51.714 21.429 21.429 51.714zM950.857 731.428q0 29.714-21.714 51.429t-51.429 21.714-51.429-21.714-21.714-51.429q0-30.286 21.429-51.714t51.714-21.429 51.714 21.429 21.429 51.714zM731.429 490.857v-105.714q0-5.714-4-11.143t-9.143-6l-88.571-13.714q-6.286-20-18.286-43.429 19.429-27.429 51.429-65.714 4-5.714 4-11.429 0-6.857-4-10.857-13.143-17.143-47.143-51.143t-44.857-34q-6.286 0-12 4l-65.714 51.429q-21.143-10.857-44-17.714-6.286-61.714-13.143-88.571-4-13.714-17.143-13.714h-106.286q-6.286 0-11.429 4.286t-5.714 10l-13.143 87.429q-19.429 5.714-42.857 17.714l-67.429-50.857q-4-4-11.429-4-6.286 0-12 4.571-82.286 76-82.286 91.429 0 5.143 4 10.857 5.714 8 23.429 30.286t26.857 34.857q-13.143 25.143-20 46.857l-86.857 13.714q-5.714 0.571-9.714 5.429t-4 11.143v105.714q0 5.714 4 11.143t9.143 6l88.571 13.714q6.286 20 18.286 43.429-19.429 27.429-51.429 65.714-4 6.286-4 11.429 0 6.857 4 11.429 12.571 17.143 46.857 50.857t45.143 33.714q6.286 0 12-4l65.714-51.429q19.429 10.286 44 18.286 6.286 61.714 13.143 88 4 13.714 17.143 13.714h106.286q6.286 0 11.429-4.286t5.714-10l13.143-87.429q19.429-5.714 42.857-17.714l67.429 50.857q4.571 4 11.429 4 6.286 0 12-4.571 82.286-76 82.286-91.429 0-5.143-4-10.857-6.857-9.143-24-30.857t-25.714-34.286q13.143-27.429 19.429-46.857l86.857-13.143q5.714-1.143 9.714-6t4-11.143zM1097.143 186.286v-80q0-9.143-85.143-17.714-6.857-15.429-17.143-29.714 29.143-64.571 29.143-78.857 0-2.286-2.286-4-69.714-40.571-70.857-40.571-4.571 0-26.286 26.857t-29.714 38.857q-11.429-1.143-17.143-1.143t-17.143 1.143q-8-12-29.714-38.857t-26.286-26.857q-1.143 0-70.857 40.571-2.286 1.714-2.286 4 0 14.286 29.143 78.857-10.286 14.286-17.143 29.714-85.143 8.571-85.143 17.714v80q0 9.143 85.143 17.714 7.429 16.571 17.143 29.714-29.143 64.571-29.143 78.857 0 2.286 2.286 4 2.286 1.143 20 11.429t33.714 19.429 17.143 9.143q4.571 0 26.286-26.571t29.714-38.571q11.429 1.143 17.143 1.143t17.143-1.143q29.143 40.571 52.571 64l3.429 1.143q2.286 0 70.857-40 2.286-1.714 2.286-4 0-14.286-29.143-78.857 9.714-13.143 17.143-29.714 85.143-8.571 85.143-17.714zM1097.143 771.428v-80q0-9.143-85.143-17.714-6.857-15.429-17.143-29.714 29.143-64.571 29.143-78.857 0-2.286-2.286-4-69.714-40.571-70.857-40.571-4.571 0-26.286 26.857t-29.714 38.857q-11.429-1.143-17.143-1.143t-17.143 1.143q-8-12-29.714-38.857t-26.286-26.857q-1.143 0-70.857 40.571-2.286 1.714-2.286 4 0 14.286 29.143 78.857-10.286 14.286-17.143 29.714-85.143 8.571-85.143 17.714v80q0 9.143 85.143 17.714 7.429 16.571 17.143 29.714-29.143 64.571-29.143 78.857 0 2.286 2.286 4 2.286 1.143 20 11.429t33.714 19.429 17.143 9.143q4.571 0 26.286-26.571t29.714-38.571q11.429 1.143 17.143 1.143t17.143-1.143q29.143 40.571 52.571 64l3.429 1.143q2.286 0 70.857-40 2.286-1.714 2.286-4 0-14.286-29.143-78.857 9.714-13.143 17.143-29.714 85.143-8.571 85.143-17.714z" />
<glyph unicode="&#xf08a;" glyph-name="heart-o" d="M950.857 610.286q0 46.286-12.286 81.714t-31.429 56.286-46.571 34-53.714 17.714-56 4.571-64-14.571-63.143-36.571-49.429-41.143-34.286-35.143q-10.286-12.571-28-12.571t-28 12.571q-13.714 16-34.286 35.143t-49.429 41.143-63.143 36.571-64 14.571-56-4.571-53.714-17.714-46.571-34-31.429-56.286-12.286-81.714q0-96 106.857-202.857l332-320 331.429 319.429q107.429 107.429 107.429 203.429zM1024 610.286q0-126.286-130.857-257.143l-356-342.857q-10.286-10.286-25.143-10.286t-25.143 10.286l-356.571 344q-5.714 4.571-15.714 14.857t-31.714 37.429-38.857 55.714-30.571 69.143-13.429 78.857q0 125.714 72.571 196.571t200.571 70.857q35.429 0 72.286-12.286t68.571-33.143 54.571-39.143 43.429-38.857q20.571 20.571 43.429 38.857t54.571 39.143 68.571 33.143 72.286 12.286q128 0 200.571-70.857t72.571-196.571z" />
<glyph unicode="&#xf093;" glyph-name="upload" horiz-adv-x="951" d="M731.429 109.714q0 14.857-10.857 25.714t-25.714 10.857-25.714-10.857-10.857-25.714 10.857-25.714 25.714-10.857 25.714 10.857 10.857 25.714zM877.714 109.714q0 14.857-10.857 25.714t-25.714 10.857-25.714-10.857-10.857-25.714 10.857-25.714 25.714-10.857 25.714 10.857 10.857 25.714zM950.857 237.714v-182.857q0-22.857-16-38.857t-38.857-16h-841.143q-22.857 0-38.857 16t-16 38.857v182.857q0 22.857 16 38.857t38.857 16h244q12-32 40.286-52.571t63.143-20.571h146.286q34.857 0 63.143 20.571t40.286 52.571h244q22.857 0 38.857-16t16-38.857zM765.143 608q-9.714-22.857-33.714-22.857h-146.286v-256q0-14.857-10.857-25.714t-25.714-10.857h-146.286q-14.857 0-25.714 10.857t-10.857 25.714v256h-146.286q-24 0-33.714 22.857-9.714 22.286 8 39.429l256 256q10.286 10.857 25.714 10.857t25.714-10.857l256-256q17.714-17.143 8-39.429z" />
<glyph unicode="&#xf099;" glyph-name="twitter" horiz-adv-x="951" d="M925.714 717.714q-38.286-56-92.571-95.429 0.571-8 0.571-24 0-74.286-21.714-148.286t-66-142-105.429-120.286-147.429-83.429-184.571-31.143q-154.857 0-283.429 82.857 20-2.286 44.571-2.286 128.571 0 229.143 78.857-60 1.143-107.429 36.857t-65.143 91.143q18.857-2.857 34.857-2.857 24.571 0 48.571 6.286-64 13.143-106 63.714t-42 117.429v2.286q38.857-21.714 83.429-23.429-37.714 25.143-60 65.714t-22.286 88q0 50.286 25.143 93.143 69.143-85.143 168.286-136.286t212.286-56.857q-4.571 21.714-4.571 42.286 0 76.571 54 130.571t130.571 54q80 0 134.857-58.286 62.286 12 117.143 44.571-21.143-65.714-81.143-101.714 53.143 5.714 106.286 28.571z" />
<glyph unicode="&#xf0ad;" glyph-name="wrench" horiz-adv-x="962" d="M219.429 109.714q0 14.857-10.857 25.714t-25.714 10.857-25.714-10.857-10.857-25.714 10.857-25.714 25.714-10.857 25.714 10.857 10.857 25.714zM587.429 349.714l-389.714-389.714q-21.143-21.143-51.429-21.143-29.714 0-52 21.143l-60.571 61.714q-21.714 20.571-21.714 51.429 0 30.286 21.714 52l389.143 389.143q22.286-56 65.429-99.143t99.143-65.429zM949.714 598.286q0-22.286-13.143-60.571-26.857-76.571-94-124.286t-147.714-47.714q-105.714 0-180.857 75.143t-75.143 180.857 75.143 180.857 180.857 75.143q33.143 0 69.429-9.429t61.429-26.571q9.143-6.286 9.143-16t-9.143-16l-167.429-96.571v-128l110.286-61.143q2.857 1.714 45.143 27.714t77.429 46.286 40.286 20.286q8.571 0 13.429-5.714t4.857-14.286z" />
<glyph unicode="&#xf0e0;" glyph-name="mail" d="M1024 545.143v-453.714q0-37.714-26.857-64.571t-64.571-26.857h-841.143q-37.714 0-64.571 26.857t-26.857 64.571v453.714q25.143-28 57.714-49.714 206.857-140.571 284-197.143 32.571-24 52.857-37.429t54-27.429 62.857-14h1.143q29.143 0 62.857 14t54 27.429 52.857 37.429q97.143 70.286 284.571 197.143 32.571 22.286 57.143 49.714zM1024 713.143q0-45.143-28-86.286t-69.714-70.286q-214.857-149.143-267.429-185.714-5.714-4-24.286-17.429t-30.857-21.714-29.714-18.571-32.857-15.429-28.571-5.143h-1.143q-13.143 0-28.571 5.143t-32.857 15.429-29.714 18.571-30.857 21.714-24.286 17.429q-52 36.571-149.714 104.286t-117.143 81.429q-35.429 24-66.857 66t-31.429 78q0 44.571 23.714 74.286t67.714 29.714h841.143q37.143 0 64.286-26.857t27.143-64.571z" />
<glyph unicode="&#xf0f6;" glyph-name="file-text" horiz-adv-x="878" d="M838.857 733.714q16-16 27.429-43.429t11.429-50.286v-658.286q0-22.857-16-38.857t-38.857-16h-768q-22.857 0-38.857 16t-16 38.857v914.286q0 22.857 16 38.857t38.857 16h512q22.857 0 50.286-11.429t43.429-27.429zM585.143 873.143v-214.857h214.857q-5.714 16.571-12.571 23.429l-178.857 178.857q-6.857 6.857-23.429 12.571zM804.571 0v585.143h-237.714q-22.857 0-38.857 16t-16 38.857v237.714h-438.857v-877.714h731.429zM219.429 493.714q0 8 5.143 13.143t13.143 5.143h402.286q8 0 13.143-5.143t5.143-13.143v-36.571q0-8-5.143-13.143t-13.143-5.143h-402.286q-8 0-13.143 5.143t-5.143 13.143v36.571zM640 365.714q8 0 13.143-5.143t5.143-13.143v-36.571q0-8-5.143-13.143t-13.143-5.143h-402.286q-8 0-13.143 5.143t-5.143 13.143v36.571q0 8 5.143 13.143t13.143 5.143h402.286zM640 219.428q8 0 13.143-5.143t5.143-13.143v-36.571q0-8-5.143-13.143t-13.143-5.143h-402.286q-8 0-13.143 5.143t-5.143 13.143v36.571q0 8 5.143 13.143t13.143 5.143h402.286z" />
<glyph unicode="&#xf100;" glyph-name="angle-double-left" horiz-adv-x="603" d="M358.286 164.571q0-7.429-5.714-13.143l-28.571-28.571q-5.714-5.714-13.143-5.714t-13.143 5.714l-266.286 266.286q-5.714 5.714-5.714 13.143t5.714 13.143l266.286 266.286q5.714 5.714 13.143 5.714t13.143-5.714l28.571-28.571q5.714-5.714 5.714-13.143t-5.714-13.143l-224.571-224.571 224.571-224.571q5.714-5.714 5.714-13.143zM577.714 164.571q0-7.429-5.714-13.143l-28.571-28.571q-5.714-5.714-13.143-5.714t-13.143 5.714l-266.286 266.286q-5.714 5.714-5.714 13.143t5.714 13.143l266.286 266.286q5.714 5.714 13.143 5.714t13.143-5.714l28.571-28.571q5.714-5.714 5.714-13.143t-5.714-13.143l-224.571-224.571 224.571-224.571q5.714-5.714 5.714-13.143z" />
<glyph unicode="&#xf101;" glyph-name="angle-double-right" horiz-adv-x="567" d="M340 402.286q0-7.429-5.714-13.143l-266.286-266.286q-5.714-5.714-13.143-5.714t-13.143 5.714l-28.571 28.571q-5.714 5.714-5.714 13.143t5.714 13.143l224.571 224.571-224.571 224.571q-5.714 5.714-5.714 13.143t5.714 13.143l28.571 28.571q5.714 5.714 13.143 5.714t13.143-5.714l266.286-266.286q5.714-5.714 5.714-13.143zM559.429 402.286q0-7.429-5.714-13.143l-266.286-266.286q-5.714-5.714-13.143-5.714t-13.143 5.714l-28.571 28.571q-5.714 5.714-5.714 13.143t5.714 13.143l224.571 224.571-224.571 224.571q-5.714 5.714-5.714 13.143t5.714 13.143l28.571 28.571q5.714 5.714 13.143 5.714t13.143-5.714l266.286-266.286q5.714-5.714 5.714-13.143z" />
<glyph unicode="&#xf104;" glyph-name="angle-left" horiz-adv-x="384" d="M358.286 640q0-7.429-5.714-13.143l-224.571-224.571 224.571-224.571q5.714-5.714 5.714-13.143t-5.714-13.143l-28.571-28.571q-5.714-5.714-13.143-5.714t-13.143 5.714l-266.286 266.286q-5.714 5.714-5.714 13.143t5.714 13.143l266.286 266.286q5.714 5.714 13.143 5.714t13.143-5.714l28.571-28.571q5.714-5.714 5.714-13.143z" />
<glyph unicode="&#xf105;" glyph-name="angle-right" horiz-adv-x="347" d="M340 402.286q0-7.429-5.714-13.143l-266.286-266.286q-5.714-5.714-13.143-5.714t-13.143 5.714l-28.571 28.571q-5.714 5.714-5.714 13.143t5.714 13.143l224.571 224.571-224.571 224.571q-5.714 5.714-5.714 13.143t5.714 13.143l28.571 28.571q5.714 5.714 13.143 5.714t13.143-5.714l266.286-266.286q5.714-5.714 5.714-13.143z" />
<glyph unicode="&#xf106;" glyph-name="angle-up" horiz-adv-x="658" d="M614.286 274.286q0-7.429-5.714-13.143l-28.571-28.571q-5.714-5.714-13.143-5.714t-13.143 5.714l-224.571 224.571-224.571-224.571q-5.714-5.714-13.143-5.714t-13.143 5.714l-28.571 28.571q-5.714 5.714-5.714 13.143t5.714 13.143l266.286 266.286q5.714 5.714 13.143 5.714t13.143-5.714l266.286-266.286q5.714-5.714 5.714-13.143z" />
<glyph unicode="&#xf107;" glyph-name="angle-down" horiz-adv-x="658" d="M614.286 530.286q0-7.429-5.714-13.143l-266.286-266.286q-5.714-5.714-13.143-5.714t-13.143 5.714l-266.286 266.286q-5.714 5.714-5.714 13.143t5.714 13.143l28.571 28.571q5.714 5.714 13.143 5.714t13.143-5.714l224.571-224.571 224.571 224.571q5.714 5.714 13.143 5.714t13.143-5.714l28.571-28.571q5.714-5.714 5.714-13.143z" />
<glyph unicode="&#xf112;" glyph-name="back" d="M1024 310.857q0-94.857-72.571-257.714-1.714-4-6-13.714t-7.714-17.143-7.429-12.571q-6.857-9.714-16-9.714-8.571 0-13.429 5.714t-4.857 14.286q0 5.143 1.429 15.143t1.429 13.429q2.857 38.857 2.857 70.286 0 57.714-10 103.429t-27.714 79.143-45.714 57.714-60.286 39.714-76 24.286-88 12.286-100.286 3.429h-128v-146.286q0-14.857-10.857-25.714t-25.714-10.857-25.714 10.857l-292.571 292.571q-10.857 10.857-10.857 25.714t10.857 25.714l292.571 292.571q10.857 10.857 25.714 10.857t25.714-10.857 10.857-25.714v-146.286h128q407.429 0 500-230.286 30.286-76.571 30.286-190.286z" />
<glyph unicode="&#xf120;" glyph-name="terminal" horiz-adv-x="958" d="M334.286 389.143l-266.286-266.286q-5.714-5.714-13.143-5.714t-13.143 5.714l-28.571 28.571q-5.714 5.714-5.714 13.143t5.714 13.143l224.571 224.571-224.571 224.571q-5.714 5.714-5.714 13.143t5.714 13.143l28.571 28.571q5.714 5.714 13.143 5.714t13.143-5.714l266.286-266.286q5.714-5.714 5.714-13.143t-5.714-13.143zM950.857 128v-36.571q0-8-5.143-13.143t-13.143-5.143h-548.571q-8 0-13.143 5.143t-5.143 13.143v36.571q0 8 5.143 13.143t13.143 5.143h548.571q8 0 13.143-5.143t5.143-13.143z" />
<glyph unicode="&#xf121;" glyph-name="code" horiz-adv-x="1097" d="M352.571 151.428l-28.571-28.571q-5.714-5.714-13.143-5.714t-13.143 5.714l-266.286 266.286q-5.714 5.714-5.714 13.143t5.714 13.143l266.286 266.286q5.714 5.714 13.143 5.714t13.143-5.714l28.571-28.571q5.714-5.714 5.714-13.143t-5.714-13.143l-224.571-224.571 224.571-224.571q5.714-5.714 5.714-13.143t-5.714-13.143zM690.286 761.143l-213.143-737.714q-2.286-7.429-8.857-11.143t-13.429-1.429l-35.429 9.714q-7.429 2.286-11.143 8.857t-1.429 14l213.143 737.714q2.286 7.429 8.857 11.143t13.429 1.429l35.429-9.714q7.429-2.286 11.143-8.857t1.429-14zM1065.714 389.143l-266.286-266.286q-5.714-5.714-13.143-5.714t-13.143 5.714l-28.571 28.571q-5.714 5.714-5.714 13.143t5.714 13.143l224.571 224.571-224.571 224.571q-5.714 5.714-5.714 13.143t5.714 13.143l28.571 28.571q5.714 5.714 13.143 5.714t13.143-5.714l266.286-266.286q5.714-5.714 5.714-13.143t-5.714-13.143z" />
<glyph unicode="&#xf123;" glyph-name="star-half-empty, star-half-full, star-half-o" horiz-adv-x="951" d="M677.714 404l146.857 142.857-241.143 35.429-17.143 34.286-90.857 184v-550.286l33.714-17.714 181.714-96-34.286 202.857-6.857 37.714zM936 553.714l-207.429-202.286 49.143-285.714q2.857-18.857-3.429-29.429t-19.429-10.571q-9.714 0-22.857 6.857l-256.571 134.857-256.571-134.857q-13.143-6.857-22.857-6.857-13.143 0-19.429 10.571t-3.429 29.429l49.143 285.714-208 202.286q-18.286 18.286-13.143 34t30.857 19.714l286.857 41.714 128.571 260q11.429 23.429 28 23.429 16 0 28-23.429l128.571-260 286.857-41.714q25.714-4 30.857-19.714t-13.714-34z" />
</font>
</defs>
</svg>
